<?xml version="1.0" standalone="no"?>
<!DOCTYPE svg PUBLIC "-//W3C//DTD SVG 1.1//EN" "http://www.w3.org/Graphics/SVG/1.1/DTD/svg11.dtd">
<svg xmlns="http://www.w3.org/2000/svg">
<metadata>buditanrim</metadata>
<defs>
<font id="fontello" horiz-adv-x="1000" >
<font-face font-family="fontello" font-weight="400" font-stretch="normal" units-per-em="1000" ascent="850" descent="-150" />
<missing-glyph horiz-adv-x="1000" />
<glyph glyph-name="animal-fish" unicode="&#xe800;" d="m735 637c-51 18-98 26-141 26-228 0-351-212-382-285l-212 222v-469l213 195c31-76 147-288 370-288 43 0 90 7 141 26 180 64 276 257 276 289 0 32-85 221-265 284z m-675-384v209l93-111-93-98z m627-135c-36-11-71-18-104-18-201 0-298 209-315 251l-1 2c5 11 107 247 326 247 31 0 62-6 94-15v-467z m63 25v420c113-56 176-170 189-209-13-36-78-150-189-211z" horiz-adv-x="1000" />
<glyph glyph-name="animal-fox" unicode="&#xe801;" d="m947 833c-29 0-228 5-349-136-70 13-110 14-110 14s-49-4-112-15c-122 142-262 137-291 137-27-28 13-192 50-280-51-62-87-123-87-123s31-187 190-375c62-92 173-172 217-187h63c43 15 157 95 218 187 158 219 187 375 187 375s-35 61-86 123c37 89 137 253 110 280z m-61-62c7-59-53-116-84-179-39 41-83 77-128 88 0 0-1 0-2 1 35 62 214 121 214 90z m-740 0c0 31 121-28 155-91 0 0-1 0-1 0-45-11-90-47-130-88-30 62-31 120-24 179z m715-352c4-82-87-193-177-329-48-73-131-145-166-160h-63c-36 15-116 87-165 160-103 154-179 247-180 340 7 18 129 170 206 189 79 20 135 30 170 30 36 0 78-6 173-29 76-20 197-184 202-201z m-375-395l126 125h-251l125-125z" horiz-adv-x="1000" />
<glyph glyph-name="animal-frog" unicode="&#xe802;" d="m1000 538c0 103-84 187-188 187-38 0-74-12-105-32-59 20-130 32-207 32-77 0-148-12-208-32-30 20-66 32-105 32-103 0-187-84-187-187 0-55 24-104 61-138-5-70-12-425 439-425 451 0 444 355 439 425 37 34 61 83 61 138z m-938 0c0 69 56 125 125 125s125-56 125-125-56-125-125-125-125 56-125 125z m438-500c-181 0-270 53-314 116 71-9 192-23 314-23 122 0 243 14 314 23-44-63-133-116-314-116z m344 182c-60-8-202-26-344-26-143 0-284 18-344 26-18 69 0 130 0 130v3c10-1 21-3 31-3 104 0 188 84 188 188 0 40-13 76-34 107 46 11 101 18 159 18 58 0 113-7 159-18-21-31-34-67-34-107 0-104 84-188 187-188 11 0 21 1 32 3v-3c0 0 18-61 0-130z m-32 193c-69 0-125 56-125 125s56 125 125 125c69 0 125-56 125-125s-56-125-125-125z" horiz-adv-x="1000" />
<glyph glyph-name="animal-goose" unicode="&#xe803;" d="m500 819c-207 0-407-283-407-516s200-422 407-422 407 189 407 422-200 516-407 516z m0-875c-173 0-344 161-344 359s171 453 344 453c173 0 344-254 344-453s-171-359-344-359z m0 562c-138 0-250-112-250-250s112-250 250-250c138 0 250 112 250 250s-112 250-250 250z m0-62c104 0 188-84 188-188l-188 63-187-63c0 104 84 188 187 188z m0-375c-82 0-152 54-177 128l177 59 177-59c-24-74-94-128-177-128z" horiz-adv-x="1000" />
<glyph glyph-name="animal-husky" unicode="&#xe804;" d="m909 819c-93-43-158-142-192-207-62 51-136 82-217 82h-1l0 0c-81 0-155-31-216-81-35 64-100 163-192 206 0 0-86-213 44-464-7-32-11-65-11-100 0-242 168-374 376-374 207 0 375 132 375 374 0 34-4 67-10 99 130 251 44 465 44 465z m-784-98c53-45 92-108 114-151-33-37-60-82-79-131-48 117-45 219-35 282z m375-777c-173 0-313 103-313 311 0 180 105 331 246 367 33-27 66-67 66-116 0 49 34 89 66 117 142-37 248-187 248-368 0-208-141-311-313-311z m261 625c22 43 61 107 114 152 10-64 13-166-35-283-20 50-46 94-79 131z m-377-406c0 0 43-125 123-125 80 0 123 125 123 125s-61 31-123 31c-61 0-123-31-123-31z" horiz-adv-x="1000" />
<glyph glyph-name="animal-lion" unicode="&#xe805;" d="m969 819c-107-46-233-85-308-105-50 27-105 42-159 42-57 0-112-16-164-45-76 21-201 58-307 103 1 1-7-54 2-89 19-72 72-180 103-239-26-57-41-119-41-183 0-233 199-422 407-422 207 0 406 189 406 422 0 65-15 128-42 186 31 60 82 167 101 240 9 35 1 91 2 90z m-873-94l190-47c-45-34-84-78-116-127l-74 174z m406-781c-76 0-151 32-212 84l212 92 211-92c-61-52-136-84-211-84z m259 133l-228 99v72c60 26 92 118 92 118s-61 31-123 31c-61 0-123-31-123-31s32-92 92-118v-72l-229-100c-51 63-85 141-85 227 0 199 172 391 345 391 172 0 344-192 344-391 0-86-34-164-85-226z m70 476c-32 50-72 93-117 127l191 49-74-176z" horiz-adv-x="1000" />
<glyph glyph-name="animal-monkey" unicode="&#xe806;" d="m969 475c0 121-84 219-188 219-17 0-34-4-51-9-48 76-126 126-215 132l-5 2-3-1c-2 0-4 1-7 1-96 0-180-53-231-134-16 5-33 9-50 9-104 0-188-98-188-219 0-75 33-141 82-180-12-27-19-55-19-85 0-163 182-329 406-329s406 166 406 329c0 30-8 58-19 85 49 39 82 105 82 180z m-875 0c0 86 56 156 125 156 7 0 15-1 22-3-14-37-22-78-22-122 0-27 3-52 9-77-34-23-62-49-84-79-30 29-50 74-50 125z m406-531c-190 0-344 138-344 266 0 79 58 149 146 191-13 32-21 67-21 105 0 114 67 208 157 239 31-39 72-105 72-176 0 70 33 135 57 174 88-32 152-126 152-237 0-38-8-73-21-105 88-42 146-112 146-191 0-128-154-266-344-266z m272 485c5 25 9 50 9 77 0 44-8 85-22 122 7 2 15 3 22 3 69 0 125-70 125-156 0-51-20-96-50-125-22 30-50 56-84 79z" horiz-adv-x="1000" />
<glyph glyph-name="animal-monkey-a" unicode="&#xe807;" d="m1000 475c0 121-84 219-188 219-27 0-52-7-76-19-50 86-137 144-236 144-99 0-186-58-236-144-24 12-49 19-77 19-103 0-187-98-187-219 0-101 59-185 138-210-7-23-13-46-13-71 0-155 168-313 375-313 207 0 375 158 375 313 0 25-6 48-14 71 80 25 139 109 139 210z m-938 0c0 86 56 156 125 156 18 0 36-5 51-13-12-35-19-72-19-112 0-39 7-76 19-111-29-21-52-46-71-74-59 12-105 76-105 154z m438-531c-173 0-313 129-313 250 0 73 52 137 130 176-23 40-36 86-36 136 0 102 53 189 129 228 43-19 90-51 90-103 0 56 44 89 80 108 81-37 139-127 139-233 0-50-14-96-36-136 78-39 129-103 129-176 0-121-139-250-312-250z m332 377c-18 28-41 53-70 74 12 35 19 72 19 111 0 40-7 77-19 112 15 8 32 13 50 13 69 0 125-70 125-156 0-78-45-142-105-154z m-332-190c-104 0-188 56-188 125h-62c0-103 112-187 250-187 138 0 250 84 250 187h-63c0-69-84-125-187-125z" horiz-adv-x="1000" />
<glyph glyph-name="animal-mouse" unicode="&#xe808;" d="m781 850c-88 0-164-53-199-129-30 3-58 4-78 4-22 0-53-1-86-4-34 76-110 129-199 129-121 0-219-98-219-219 0-114 88-207 200-216 25-97 81-153 113-249 13-40 42-92 74-138-7-16-12-34-12-53 0-69 56-125 125-125 69 0 125 56 125 125 0 15-3 30-8 43 35 48 67 103 81 147 26 78 81 108 102 209l4 41c110 11 196 103 196 216 0 121-98 219-219 219z m-552-236c-21-33-44-70-40-136-72 14-127 77-127 153 0 87 70 157 157 157 57 0 106-32 134-77-48-11-90-29-104-60-5-13-12-24-20-37z m271-701c-35 0-63 27-63 62s28 63 63 63c35 0 62-28 62-63s-27-62-62-62z m244 526l-5-24c-14-71-75-141-110-251-10-30-30-63-52-91-22 17-48 27-77 27-29 0-55-10-76-26-20 26-39 58-50 91-27 81-87 128-118 274-16 73 2 102 24 138 8 14 16 27 23 44 10 22 105 42 200 42 93 0 186-20 195-42 7-16 15-30 23-43 21-37 39-65 23-139z m68 39c3 66-19 103-39 136-8 12-15 24-20 36-14 33-57 51-105 62 27 45 76 76 133 76 87 0 156-70 156-157 0-75-53-139-125-153z" horiz-adv-x="1000" />
<glyph glyph-name="animal-pig" unicode="&#xe809;" d="m375 163h62v62h-62v-62z m187 0h63v62h-63v-62z m323 282c116 147 2 405 2 405-122-45-204-155-240-213-46 16-95 26-147 26-52 0-101-10-147-26-36 58-118 168-240 213 0 0-114-258 2-405-33-56-53-120-53-189 0-224 196-406 438-406 242 0 437 182 437 406 0 69-20 133-52 189z m-33 318c20-70 41-185-4-262-37 44-83 81-137 109l-5 4c28 42 78 106 146 149z m-704 0c68-43 118-107 146-149l-6-4c-53-28-99-65-136-109-46 77-24 192-4 262z m352-850c-207 0-375 154-375 343 0 190 168 344 375 344 207 0 375-154 375-344 0-189-168-343-375-343z m0 437c-138 0-250-70-250-156s112-156 250-156c138 0 250 70 250 156s-112 156-250 156z m0-250c-104 0-188 42-188 94s84 94 188 94c103 0 187-42 187-94s-84-94-187-94z" horiz-adv-x="1000" />
<glyph glyph-name="animal-pig-a" unicode="&#xe80a;" d="m885 445c116 147 2 405 2 405-122-45-204-155-240-213-46 16-95 26-147 26-52 0-101-10-147-26-36 58-118 168-240 213 0 0-114-258 2-405-33-56-53-120-53-189 0-224 196-406 438-406 242 0 437 182 437 406 0 69-20 133-52 189z m-33 318c20-70 41-185-4-262-37 44-83 81-137 109l-5 4c28 42 78 106 146 149z m-704 0c68-43 118-107 146-149l-6-4c-53-28-99-65-136-109-46 77-24 192-4 262z m352-850c-207 0-375 154-375 343 0 190 168 344 375 344 207 0 375-154 375-344 0-189-168-343-375-343z m0 437c-138 0-250-84-250-187 0-104 112-188 250-188 138 0 250 84 250 188 0 103-112 187-250 187z m0-312c-104 0-188 56-188 125 0 69 84 125 188 125 103 0 187-56 187-125 0-69-84-125-187-125z" horiz-adv-x="1000" />
<glyph glyph-name="animal-sheep" unicode="&#xe80b;" d="m688 657c0 2-1 4-1 6 0 46-118 62-183 62-67 0-192-16-192-62 0-2 0-4 0-6-107-14-312-69-312-279 0 0 158-66 269 9 109-409 154-381 154-381 7-3 40-31 81-31 43 0 74 28 81 31 0 0 38-28 147 380 111-74 268-8 268-8 0 210-205 265-312 279z m-431-218c-74-67-195-30-195-30 0 141 166 179 228 188-21-43-44-97-33-158z m425 0c-57-276-120-370-120-370s-38-31-62-31c-23 0-63 31-63 31s-62 94-119 370c-15 74 2 102 24 138 8 14 17 27 24 44 9 22 42 42 137 42 93 0 123-20 132-42 7-16 15-30 23-43 22-37 39-67 24-139z m62-1c12 62-14 115-35 160 60-9 228-46 228-189 0 0-119-37-193 29z" horiz-adv-x="1000" />
<glyph glyph-name="animal-shrimp" unicode="&#xe80c;" d="m1000 800l-44 50-223-188h-326l-1 5-62-9 0-1c-174-27-311-165-338-340 0 0-6-45-6-61 0-133 65-250 164-324l54-34c56-30 120-48 188-48 120 0 227 54 301 137l3-3 218 219-44 44-198-198-220 165-3 23c54 17 151 56 218 125 68 68 104 165 120 219l173-75 26 59-183 80 183 155z m-648-205l44-323c-7-2-12-3-15-4l-308 69c32 133 142 237 279 258z m-148-615c-86 62-141 162-141 276 0 6 1 12 1 17l319-74-179-219z m437 27c-62-58-144-95-235-95-53 0-103 13-148 35l178 214 205-154z m-4 400c-54-55-126-91-181-114l-41 307h332c-18-55-52-135-110-193z" horiz-adv-x="1000" />
<glyph glyph-name="animal-wolf" unicode="&#xe80d;" d="m384 163c0 0 43-125 123-125 80 0 123 125 123 125s-61 31-123 31c-61 0-123-31-123-31z m525 656c-93-43-158-142-192-207-62 51-136 82-217 82h-1l0 0c-81 0-155-31-216-81-35 64-100 163-192 206 0 0-86-213 44-464-7-32-11-65-11-100 0-242 168-374 376-374 207 0 375 132 375 374 0 34-4 67-10 99 130 251 44 465 44 465z m-784-98c53-45 92-108 114-151-33-37-60-82-79-131-48 117-45 219-35 282z m685-497c-37-14-84-22-122 1 56-34 67-119 69-162-56-79-150-119-257-119-107 0-201 39-258 118 2 43 13 129 70 163-39-23-86-15-123-1-1 10-2 20-2 31 0 180 105 331 246 367 32-27 66-67 66-116 0 49 34 89 66 117 142-37 248-187 248-368 0-11-2-21-3-31z m-49 346c22 42 61 106 114 151 10-64 13-166-35-283-20 50-46 94-79 132z" horiz-adv-x="1000" />
<glyph glyph-name="animal-bull" unicode="&#xe80e;" d="m744 663c-12 16-32 28-57 37l59 103c8 15 3 34-12 43-15 9-34 3-42-12l-68-118c-45 7-91 9-120 9-30 0-80-2-128-10l-68 119c-8 15-27 20-42 12-15-9-20-28-12-43l60-104c-24-9-44-21-56-36h-258v-32c0 0 73-159 192-182 1-7 2-14 4-23 23-104 84-222 117-323 31-95 34-175 70-215l4-4 5-3c7-3 71-31 112-31 43 0 106 28 113 31l5 3 3 4c38 43 31 118 63 212 33 101 87 215 117 327 2 8 4 14 5 22 118 24 190 182 190 182v32h-256z m-555-150c-35 14-68 47-95 88h127c-15-23-28-50-32-88z m555-74c-33-146-89-260-115-338-24-69-16-132-41-164-19-8-60-24-85-24-23 0-65 16-84 24-23 30-17 82-45 165-27 81-87 191-118 337-16 74 2 102 24 138 8 14 16 27 23 44 10 22 105 42 200 42 93 0 186-20 195-42 7-16 15-30 23-43 21-37 39-67 23-139z m71 75c-4 38-19 64-34 87h125c-27-40-57-73-91-87z" horiz-adv-x="1000" />
<glyph glyph-name="animal-cat" unicode="&#xe80f;" d="m595 131c-34 0-62 28-62 63h-62c0-35-28-63-62-63s-62 28-62 63h-62c0-69 56-125 124-125 37 0 70 17 93 43 23-26 56-43 93-43 68 0 124 56 124 125h-62c0-35-28-63-62-63z m339 688c-102-45-211-82-277-103-48 25-101 40-156 40-58 0-111-16-160-42-67 21-174 57-275 100 1 1-7-54 2-89 21-78 63-198 83-252-16-48-25-100-25-154 0-242 167-438 375-438 207 0 375 196 375 438 0 55-10 106-26 154 20 56 62 177 82 256 9 35 1 91 2 90z m-804-94l159-45c-44-36-80-82-108-135l-51 180z m370-781c-173 0-312 168-312 375 0 207 139 375 312 375 172 0 312-168 312-375 0-207-140-375-312-375z m320 602c-28 53-65 100-110 136l160 47-50-183z" horiz-adv-x="1000" />
<glyph glyph-name="animal-chicken" unicode="&#xe810;" d="m500 475c-138 0-250-112-250-250 0-138 112-250 250-250 138 0 250 112 250 250 0 138-112 250-250 250z m0-62c104 0 188-84 188-188l-188 63-187-63c0 104 84 188 187 188z m0-375c-82 0-152 54-177 128l177 59 177-59c-24-74-94-128-177-128z m91 731c-6 46-43 81-91 81-47 0-84-35-91-81-171-65-316-298-316-497 0-233 200-422 407-422s407 189 407 422c0 198-145 432-316 497z m-122-13c0 18 14 32 31 32 17 0 32-14 32-32v-125c0-17-15-31-32-31-17 0-31 14-31 31v125z m31-843c-173 0-344 160-344 359 0 162 114 362 251 429v-70c0-51 42-93 93-93 52 0 94 42 94 93v70c136-68 250-267 250-429 0-199-171-359-344-359z" horiz-adv-x="1000" />
<glyph glyph-name="animal-cow" unicode="&#xe811;" d="m744 725c-42 56-179 63-240 63-62 0-203-7-246-63h-258v-31c0 0 73-160 192-182 1-8 2-15 4-23 45-204 113-455 187-539l4-4 5-2c7-3 71-31 112-31 43 0 106 28 113 31l4 2 4 4c69 78 127 261 175 487l5 52c2 8 3 15 4 22 118 23 191 183 191 183v31h-256z m-555-149c-35 13-67 46-95 88h127c-15-24-28-50-32-88z m67-75c-16 74 2 103 24 139 8 13 16 27 23 43 10 22 105 42 200 42 20 0 40-1 59-3 17-70 34-230-141-278-69-19-111-44-136-69-10 39-19 80-29 126z m488 0l-5-23c-24-117-87-396-151-478-19-9-60-25-85-25-23 0-65 16-84 25-31 39-65 120-104 256h8c0 0-73 63 163 157 173 68 161 224 144 300 37-8 63-18 68-29 7-17 15-31 23-44 21-36 39-65 23-139z m67 74c-3 38-16 65-30 89h125c-27-42-59-75-95-89z" horiz-adv-x="1000" />
<glyph glyph-name="animal-cow-a" unicode="&#xe812;" d="m312 319c-69 0-125-56-125-125s56-125 125-125 125 56 125 125-55 125-125 125z m0-188c-34 0-62 28-62 63s28 62 62 62 63-28 63-62-28-63-63-63z m500 307v193h94c17 0 31 14 31 32 0 17-14 31-31 31h-94c0 69-55 125-125 125h-375c-69 0-125-56-125-125h-93c-18 0-32-14-32-31 0-18 14-32 32-32h93v-193c-114-58-187-146-187-244 0-173 224-313 500-313 276 0 500 140 500 313 0 98-73 186-188 244z m-562 256c0 34 28 62 62 62h375c35 0 63-28 63-62v-230c-39 14-81 25-125 32v104c0 17-14 31-31 31s-32-14-32-31v-96c-20 1-41 2-62 2-21 0-42-1-63-2v96c0 17-14 31-31 31-17 0-31-14-31-31v-104c-44-7-86-18-125-32v230z m250-750c-242 0-438 112-438 250s196 250 438 250c242 0 437-112 437-250s-195-250-437-250z m187 375c-69 0-125-56-125-125s56-125 125-125 125 56 125 125-55 125-125 125z m0-188c-34 0-62 28-62 63s28 62 62 62 63-28 63-62-28-63-63-63z" horiz-adv-x="1000" />
<glyph glyph-name="animal-dog" unicode="&#xe813;" d="m937 819c-129-57-270-101-320-116-37 13-75 22-115 22-43 0-83-9-121-24-55 16-192 59-318 113 0 1-8-54 1-89 23-87 73-225 89-267-17-48-27-100-27-155 0-233 168-422 376-422 207 0 375 189 375 422 0 56-10 110-28 158 17 47 64 182 87 268 9 35 1 91 1 90z m-810-94l193-55c-56-35-103-84-136-144l-57 199z m375-781c-173 0-313 161-313 359 0 199 140 360 313 360 172 0 312-161 312-360 0-198-140-359-312-359z m316 585c-34 60-82 109-138 143l194 57-56-200z m-439-288c0 0 43-125 123-125s123 125 123 125-61 31-123 31c-61 0-123-31-123-31z" horiz-adv-x="1000" />
<glyph glyph-name="com-bubble-dot-b" unicode="&#xe814;" d="m250 506c-35 0-63-27-63-62 0-35 28-63 63-63s62 28 62 63c0 35-28 62-62 62z m250 0c-35 0-63-27-63-62 0-35 28-63 63-63 35 0 62 28 62 63 0 35-27 62-62 62z m250 0c-35 0-63-27-63-62 0-35 28-63 63-63s62 28 62 63c0 35-27 62-62 62z m156 313h-812c-52 0-94-42-94-94v-625c0-52 42-93 94-93h281l125-126 125 126h281c52 0 94 41 94 93v625c0 52-42 94-94 94z m31-719c0-17-14-31-31-31h-312l-94-94-94 94h-312c-18 0-32 14-32 31v625c0 17 14 31 32 31h812c17 0 31-14 31-31v-625z" horiz-adv-x="1000" />
<glyph glyph-name="com-bubble-line" unicode="&#xe815;" d="m719 538h-438c-17 0-31-14-31-32 0-17 14-31 31-31h438c17 0 31 14 31 31 0 18-14 32-31 32z m-63-188h-312c-18 0-32-14-32-31 0-17 14-31 32-31h312c17 0 31 14 31 31 0 17-14 31-31 31z m-156 500c-276 0-500-196-500-437 0-138 73-261 187-342v-221l257 128c18-2 37-3 56-3 276 0 500 196 500 438 0 241-224 437-500 437z m0-812c-51 0-61 0-63 0l-187-94v163c-113 68-188 179-188 306 0 207 196 375 438 375s437-168 437-375c0-207-195-375-437-375z" horiz-adv-x="1000" />
<glyph glyph-name="com-bubble-line-a" unicode="&#xe816;" d="m656 413h-312c-18 0-32-14-32-32 0-17 14-31 32-31h312c17 0 31 14 31 31 0 18-14 32-31 32z m156 437h-625c-103 0-187-84-187-187v-407c0-103 84-156 187-156h350l275-250v250c104 0 188 84 188 188v375c0 103-84 187-188 187z m125-562c0-69-56-125-125-125h-62v-174l-188 174h-375c-69 0-125 24-125 93v407c0 69 56 125 125 125h625c69 0 125-56 125-125v-375z m-218 312h-438c-17 0-31-14-31-31 0-17 14-31 31-31h438c17 0 31 14 31 31 0 17-14 31-31 31z" horiz-adv-x="1000" />
<glyph glyph-name="com-bubble-line-b" unicode="&#xe817;" d="m656 382h-312c-18 0-32-15-32-32 0-17 14-31 32-31h312c17 0 31 14 31 31 0 18-14 32-31 32z m250 437h-812c-52 0-94-42-94-94v-625c0-52 42-93 94-93h281l125-126 125 126h281c52 0 94 41 94 93v625c0 52-42 94-94 94z m31-719c0-17-14-31-31-31h-312l-94-94-94 94h-312c-18 0-32 14-32 31v625c0 17 14 31 32 31h812c17 0 31-14 31-31v-625z m-156 469h-562c-18 0-32-14-32-31 0-17 14-31 32-31h562c17 0 31 14 31 31 0 17-14 31-31 31z" horiz-adv-x="1000" />
<glyph glyph-name="com-chat" unicode="&#xe818;" d="m250 506c-35 0-63-28-63-62 0-35 28-63 63-63s62 28 62 63c0 34-28 62-62 62z m250 0c-35 0-63-28-63-62 0-35 28-63 63-63 35 0 62 28 62 63 0 34-27 62-62 62z m250 0c-35 0-63-28-63-62 0-35 28-63 63-63s62 28 62 63c0 34-27 62-62 62z m-63 313h-375c-172 0-312-140-312-313v-125c0-128 77-237 187-286v-214l258 188h242c173 0 313 140 313 312v125c0 173-140 313-313 313z m250-438c0-138-111-250-250-250h-262l-175-125v134c-108 28-188 125-188 241v125c0 138 112 250 250 250h375c139 0 250-112 250-250v-125z" horiz-adv-x="1000" />
<glyph glyph-name="com-check-box" unicode="&#xe819;" d="m750 38c0-35-28-63-62-63h-563c-34 0-62 28-62 63v625c0 34 28 62 62 62h563c34 0 62-28 62-62h63c0 69-56 125-125 125h-563c-69 0-125-56-125-125v-625c0-70 56-125 125-125h563c69 0 125 55 125 125v125h-63v-125z m240 553c-12 12-32 12-44 0l-353-323-163 135c-12 13-33 13-46 0-12-12-12-33 0-46l185-153c7-7 16-10 25-9 0 0 0 0 1 0 6 0 12 3 18 7 1 1 2 1 3 2l374 343c13 12 13 32 0 44z" horiz-adv-x="1000" />
<glyph glyph-name="com-email" unicode="&#xe81a;" d="m999 726c0 0 0 0 0 1-1 7-4 14-8 19-1 0 0 1-1 2-1 0-2 0-2 1-5 4-11 6-17 7-2 0-2 0-4 0h-934c-2 0-3 0-4 0-6-1-12-3-17-7 0-1-1-1-2-1-1-1 0-2-1-2-4-5-7-12-8-19 0-1 0-1 0-1 0-1 0-1 0-1v-750c0-17 14-31 31-31h936c17 0 31 14 31 31v750c0 0 0 1 0 1z m-120-32l-379-305-380 305h759z m58-656c0-18-14-32-32-32h-810c-18 0-32 14-32 32v623l414-331c0-1 0-1 1-2 6-6 14-9 22-9 8 0 16 3 22 9 1 1 1 1 1 2l414 331v-623z" horiz-adv-x="1000" />
<glyph glyph-name="com-email-cross" unicode="&#xe81b;" d="m926 185c-13 12-33 12-46 0l-100-101-100 101c-13 12-34 12-46 0-13-13-13-34 0-47l100-100-100-101c-13-12-13-33 0-46 12-13 33-13 46 0l100 101 100-101c13-13 33-13 46 0 13 13 13 34 0 46l-100 101 100 100c13 13 13 34 0 47z m43 633c-1 1-1 1-2 1h-935c-1 0-2-1-3-1-7-1-13-3-17-7-1-1-2 0-3-1 0-1 0-1-1-2-4-5-7-12-7-19 0 0-1-1-1-1 0 0 0 0 0-1v-750c0-17 14-31 32-31h468v62h-406c-17 0-31 15-31 32v624l413-332c1 0 1-1 1-2 6-6 14-9 22-8 8-1 16 2 23 8 0 1 0 2 0 2l415 333v-469h63v531c0 17-14 31-31 31z m-470-366l-379 304h759l-380-304z" horiz-adv-x="1000" />
<glyph glyph-name="com-email-minus" unicode="&#xe81c;" d="m969 6h-251c-17 0-32-14-32-31 0-17 15-31 32-31h251c17 0 31 14 31 31 0 17-14 31-31 31z m-32 188h62v531c0 17-14 31-31 31 0 0-1 0-2 0h-935c-1 0-2 0-3 0-6-1-12-3-17-7 0-1-2-1-2-1-1-1-1-2-1-2-5-5-7-12-8-19 0-1 0-1 0-1 0-1 0-1 0-1v-750c0-17 14-31 31-31h469v62h-407c-17 0-31 14-31 32v623l414-331c0-1 0-2 0-2 7-6 15-9 23-9 8 0 16 3 22 9 1 1 0 1 1 2l415 332v-468z m-438 195l-380 305h759l-379-305z" horiz-adv-x="1000" />
<glyph glyph-name="com-email-o" unicode="&#xe81d;" d="m500 850l-500-312v-688h1000v688l-500 312z m0-62l425-273-439-333-111 90 0 0-47 47-5-6-249 201 426 274z m-438-346l223-179-223-286v465z m33-529l241 309 132-107 15-15 1 2 2-2 11 11 159 121 249-319h-810z m842 64l-228 295 228 173v-468z" horiz-adv-x="1000" />
<glyph glyph-name="com-email-plus" unicode="&#xe81e;" d="m937 256h62v532c0 17-14 30-31 31 0 0-1 0-2 0h-935c-1 0-2-1-3-1-6 0-12-3-17-7 0 0-2 0-2-1-1 0-1-1-1-2-5-5-7-11-8-19 0 0 0 0 0-1 0 0 0 0 0 0v-750c0-18 14-32 31-32h469v63h-407c-17 0-31 14-31 31v624l414-332c0 0 0-1 0-1 7-7 15-9 23-9 8 0 16 2 22 9 1 0 0 1 1 1l415 333v-469z m-438 196l-380 304h759l-379-304z m470-383h-94v94c0 17-14 31-32 31s-31-14-31-31v-94h-94c-17 0-32-14-32-31 0-18 15-32 32-32h94v-93c0-18 14-32 31-32s32 14 32 32v93h94c17 0 31 14 31 32 0 17-14 31-31 31z" horiz-adv-x="1000" />
<glyph glyph-name="com-email-tick" unicode="&#xe81f;" d="m62 68v624l414-332c1 0 0-1 1-2 6-6 14-9 22-8 8-1 16 2 23 8 0 1 0 2 0 2l415 333v-469h62v531c0 17-13 31-30 32-1 0-2 0-2 0h-935c-1 0-2-1-4-1-6-1-12-3-16-7-1-1-2 0-3-1 0-1 0-1-1-2-4-5-7-12-8-19 0 0 0-1 0-1 0 0 0-1 0-1v-750c0-17 14-31 31-31h532v63h-469c-18 0-32 14-32 31z m817 656l-380-304-379 304h759z m111-571c-12 12-33 12-45 0l-165-167-100 101c-13 13-33 13-46 0-12-12-12-33 0-45l118-119c8-8 18-11 28-9 10-2 21 1 28 9l182 184c13 12 13 33 0 46z" horiz-adv-x="1000" />
<glyph glyph-name="com-envelope" unicode="&#xe820;" d="m125 131h437v63h-437v-63z m0 125h437v63h-437v-63z m500 125h250v250h-250v-250z m62 188h125v-125h-125v125z m250 187h-875c-34 0-62-28-62-62v-688c0-34 28-62 62-62h875c35 0 63 28 63 62v688c0 34-28 62-63 62z m0-718c0-18-14-32-31-32h-812c-18 0-32 14-32 32v625c0 17 14 31 32 31h812c17 0 31-14 31-31v-625z" horiz-adv-x="1000" />
<glyph glyph-name="com-feather-pen" unicode="&#xe821;" d="m995 845c0 0-393 44-567-131-164-164-238-394-137-530l-291-290 44-44 290 291c136-102 366-28 530 137 7 7 12 16 19 24l3-2 5 12c5 7 11 14 16 21l-7 2 11 28-91 46 126 42 18 45h10c40 170 21 349 21 349z m-663-384l52-52 44 43-68 68c10 19 20 37 33 55l78-79 44 44-85 85c13 15 27 31 41 46 134 134 342 130 428 122l-564-565c-41 61-37 145-3 233z m590 40l-211-70 123-93c-4-5-8-11-14-17-140-140-331-210-442-136l564 564c5-52 8-149-20-248z" horiz-adv-x="1000" />
<glyph glyph-name="com-fountain-pen" unicode="&#xe822;" d="m781 38h-62l125 250-344 562-344-562 125-250h-62c-35 0-63-28-63-63v-62c0-35 28-63 63-63h562c35 0 63 28 63 63v62c0 35-28 63-63 63z m-562 250l250 416v-166h62v167l250-411-126-256h-311l-125 250z m531-375h-500c-17 0-31 14-31 31 0 17 14 31 31 31h500c17 0 31-14 31-31 0-17-14-31-31-31z m-250 187c86 0 156 70 156 156s-70 157-156 157c-86 0-156-70-156-157s70-156 156-156z m0 250c52 0 94-42 94-94 0-51-42-93-94-93-52 0-94 42-94 93 0 52 42 94 94 94z" horiz-adv-x="1000" />
<glyph glyph-name="com-group-bubble" unicode="&#xe823;" d="m1000 38v93 0 438h-250v31 219h-750l0-437h0v-157h-1l157-156 126 125h93v-187l343-1 126-125 156 157h0z m-625 218h-125l-94-94-94 94v63 63 375h625v-157-31h-312v-313z m312 251v-251h-250v251h250z m250-313v-63-62l-93-94-94 94h-313v125h250 63v62 251h187v-313z" horiz-adv-x="1000" />
<glyph glyph-name="com-group-bubble-a" unicode="&#xe824;" d="m808 690c25-40 44-84 54-130 45-54 73-121 73-194 0-129-83-239-202-290h42v-97l-120 72c-23-4-48-7-73-7-32 0-63 5-92 12-38-8-77-12-117-12-8 0-17 0-25 1 67-42 147-66 234-66 22 0 44 3 65 6l192-134v212c97 71 161 179 161 303 0 136-77 255-192 324z m5-215c0 207-182 375-407 375s-406-168-406-375c0-109 51-206 132-275v-189l153 108c38-11 79-19 121-19 225 0 407 168 407 375z m-539-288l-78-47v90c-81 57-133 145-133 245 0 173 154 312 343 312s344-139 344-312c0-172-154-312-344-312-47 0-91 9-132 24z" horiz-adv-x="1000" />
<glyph glyph-name="com-group-bubble-b" unicode="&#xe825;" d="m250-25v125h-63c-48 0-90 28-110 68-9 6-15 15-15 26v31 250 139c-38-34-62-84-62-139v-250c0-103 84-187 187-187v-188l235 188h140v62h-145l-167-125z m562 875h-500c-103 0-187-84-187-187v-250c0-104 84-188 187-188h266l234-187v187c104 0 188 84 188 188v250c0 103-84 187-188 187z m125-437c0-70-56-125-125-125h-62v-125l-167 125h-271c-69 0-125 56-125 125v250c0 69 56 125 125 125h500c69 0 125-56 125-125v-250z" horiz-adv-x="1000" />
<glyph glyph-name="com-group-bubble-c" unicode="&#xe826;" d="m680 600h-610c-39 0-70-30-70-68v-488c0-38 31-69 70-69h180l125-125 125 125h180c38 0 70 31 70 69v488c0 38-32 68-70 68z m7-541c0-12-10-21-22-21h-196l-94-94-94 94h-196c-13 0-23 9-23 21v457c0 12 10 22 23 22h580c12 0 22-10 22-22v-457z m243 791h-610c-39 0-70-31-70-69v-118h62v103c0 12 10 22 23 22h580c12 0 22-10 22-22v-457c0-12-10-21-22-21h-103v-63h125c39 0 63 29 63 67v489c0 38-32 69-70 69z" horiz-adv-x="1000" />
<glyph glyph-name="com-group-bubble-d" unicode="&#xe827;" d="m930 850h-610c-39 0-70-30-70-68v-488c0-38 31-69 70-69h180l0 0 125-125 125 125v0h180c38 0 70 31 70 69v488c0 38-32 68-70 68z m7-541c0-12-10-21-22-21h-196l-94-94-94 94h-196c-13 0-23 9-23 21v457c0 12 10 22 23 22h580c12 0 22-10 22-22v-457z m-250-250c0-12-10-21-22-21h-196l-94-94-94 94h-196c-13 0-23 9-23 21v457c0 12 10 22 23 22h102v62h-117c-39 0-70-30-70-68v-488c0-38 31-69 70-69h180l0 0 125-125 125 125v0h180c38 0 70 31 70 69v56h-63v-41z" horiz-adv-x="1000" />
<glyph glyph-name="com-help" unicode="&#xe828;" d="m492 694c-65 0-115-27-148-70l34-37c25 35 57 56 109 56 53 0 79-29 79-63 0-72-122-79-122-166 0-21 7-40 26-56l41 19c-11 8-17 22-17 33 0 66 131 75 131 178 0 59-50 106-133 106z m-8-394c-20 0-37-17-37-37 0-21 17-38 37-38s37 17 37 38c0 20-17 37-37 37z m328 550h-625c-103 0-187-87-187-195v-422c0-108 84-195 187-195h391l234-188v188c104 0 188 87 188 195v422c0 108-84 195-188 195z m125-619c0-72-56-131-125-131h-62v-125l-150 125h-413c-69 0-125 59-125 131v426c0 72 56 131 125 131h625c69 0 125-59 125-131v-426z" horiz-adv-x="1000" />
<glyph glyph-name="com-help-a" unicode="&#xe829;" d="m484 238c-20 0-37-17-37-38s17-37 37-37 37 17 37 37-17 38-37 38z m8 393c-65 0-115-26-148-69l34-37c25 34 57 56 109 56 53 0 79-29 79-64 0-72-122-79-122-165 0-21 7-41 26-56l41 18c-11 8-17 22-17 33 0 67 131 76 131 179 0 58-50 105-133 105z m8 219c-276 0-500-196-500-437 0-139 73-261 187-342v-221l256 128c19-2 38-3 57-3 276 0 500 196 500 438 0 241-224 437-500 437z m0-812c-18 0-36 2-53 4l-197-98v161c-113 68-188 180-188 308 0 207 196 375 438 375 242 0 437-168 437-375 0-208-195-375-437-375z" horiz-adv-x="1000" />
<glyph glyph-name="com-megaphone" unicode="&#xe82a;" d="m937 788v-63l-875-125c-34 0-62-28-62-62v-313c0-35 28-62 62-62l125-18v-139c0-1 1-2 1-3 0 0 0-1 0-1 2-15 15-27 31-27 0 0 0 0 0 0l240-62c3 0 5 0 7 0 1 0 2-1 3-1 0 0 1 1 1 1 2 0 4 0 6 1 2 0 5 1 7 2 1 1 1 1 2 2 3 1 5 3 7 6 1 0 1 1 2 2 2 3 3 5 4 8 0 1 0 1 1 1 0 1 0 1 0 2 0 2 1 4 1 7v156l437-63v-62h63v125 563 125h-63z m-500-805l-187 48v105l187-27v-126z m500 148c0-17-14-31-31-31l-812 125c-18 0-32 14-32 31v250c0 18 14 32 32 32l812 125c17 0 31-14 31-32v-500z" horiz-adv-x="1000" />
<glyph glyph-name="com-megaphone-a" unicode="&#xe82b;" d="m937 788v-63l-875-125c-34 0-62-28-62-62v-313c0-35 28-62 62-62l125-18v-139c0-1 1-2 1-3 0 0 0-1 0-1 2-15 15-27 31-27 0 0 0 0 0 0l240-62c3 0 5 0 7 0 1 0 2-1 3-1 0 0 1 1 1 1 2 0 4 0 6 1 2 0 5 1 7 2 1 1 1 1 2 2 3 1 5 3 7 6 1 0 1 1 2 2 2 3 3 5 4 8 0 1 0 1 0 1 1 1 0 1 1 2 0 2 1 4 1 7v156l437-63v-62h63v125 563 125h-63z m-500-805l-187 48v105l187-27v-126z m313 141l-656 101c-18 0-32 14-32 31v250c0 18 14 32 32 32l656 101v-515z m187 7c0-17-14-31-31-31l-94 14v534l94 15c17 0 31-14 31-32v-500z" horiz-adv-x="1000" />
<glyph glyph-name="com-mic" unicode="&#xe82c;" d="m500 100c121 0 219 98 219 219v312c0 121-98 219-219 219-121 0-219-98-219-219v-312c0-121 98-219 219-219z m-156 531c0 87 70 157 156 157 86 0 156-70 156-157v-312c0-87-70-156-156-156-86 0-156 69-156 156v312z m437-281v-62c0-138-112-250-250-250h-62c-138 0-250 112-250 250v62h-63v-62c0-173 140-313 313-313v-62h-32c-17 0-31-14-31-32s14-31 31-31h32 62 31c18 0 32 14 32 31s-14 32-32 32h-31v62c173 0 313 140 313 313v62h-63z" horiz-adv-x="1000" />
<glyph glyph-name="com-mic-mute" unicode="&#xe82d;" d="m227 220c-6 22-10 44-10 68v62h-62v-62c0-42 8-81 23-118l49 50z m115 115v296c0 87 70 157 156 157 82 0 148-63 155-142l52 52c-28 88-109 152-207 152-121 0-218-98-218-219v-312c0-15 1-29 4-42l58 58z m496 408l-720-720 44-44 720 720-44 44z m-340-580c-31 0-60 9-84 24l-45-44c37-27 81-43 129-43 121 0 219 98 219 219v171l-62-62v-109c0-86-70-156-157-156z m282 125c0-138-112-250-250-250h-63c-57 0-109 19-151 51l-44-44c54-43 121-70 195-70v-62h-31c-17 0-31-14-31-32s14-31 31-31h31 63 31c17 0 31 14 31 31s-14 32-31 32h-31v62c172 0 312 140 312 313v62h-62v-62z" horiz-adv-x="1000" />
<glyph glyph-name="com-paperplane" unicode="&#xe82e;" d="m993 836c-1 2-2 3-3 4-1 1-3 2-4 3-7 6-17 9-27 6l-935-464c-1 0-1-1-2-1-10-3-18-10-21-21-2-6-1-11 1-17 0 0 0 0 0 0 0-1 0-1 0-1 1-3 2-6 4-9 1-1 3-3 4-4 1-1 3-3 5-4 1-1 3-2 5-3 1 0 3-2 4-2l284-135 165-314c0-1 1-3 2-4 1-2 2-4 3-5 1-2 3-4 4-5 1-1 2-3 4-4 3-1 6-3 9-4 0 0 0 0 1 0 0 0 0 0 0 0 5-2 11-3 16-1 12 3 19 11 22 21 0 1 1 1 1 2l464 935c2 10 0 20-6 27z m-890-482l698 347-477-452-221 105z m400-404l-134 255 491 466-357-721z" horiz-adv-x="1000" />
<glyph glyph-name="com-phone" unicode="&#xe82f;" d="m853 833c-39 28-83 18-100-7-11-16-123-183-135-203-6-9-8-20-8-32 0-15 4-32 13-48 8-16 36-65 50-89-15-21-53-70-131-148-77-77-127-115-148-130-24 14-73 42-89 50-30 16-60 18-81 5-19-12-185-123-201-134-15-11-23-30-23-51 0-17 5-34 16-49 1-2 106-148 166-147 171 6 371 171 509 308 138 138 303 338 309 508v2c0 59-146 164-147 165z m-206-630c-183-182-347-285-464-290-22 8-78 65-118 119-3 4-4 9-4 14 0 1 0 2 0 2 26 18 168 112 195 129 3 0 10-1 20-6 11-6 43-24 87-49l35-19 32 22c24 17 77 58 157 137 80 80 120 133 137 156l23 33-20 34c-19 34-42 74-49 87-5 10-6 18-6 19 0 1 0 1 0 1 15 24 112 170 130 195 2 1 8 0 15-4 55-40 112-96 120-118-5-117-108-281-290-462z" horiz-adv-x="1000" />
<glyph glyph-name="com-phone-a" unicode="&#xe830;" d="m985 704c-1 1-106 148-167 146-170-5-371-170-509-308-138-138-304-338-310-508v-2c0-59 146-165 147-165 40-28 83-18 101 7 11 15 122 182 135 203 5 9 8 20 8 32 0 15-4 32-13 48-9 16-37 65-50 89 15 21 52 70 131 148 77 77 127 115 148 130 24-14 73-41 89-50 30-16 61-17 81-5 19 13 186 123 202 135 15 10 23 30 23 51 0 16-5 34-16 49z m-45-52c-26-17-169-112-196-129-3 0-10 1-20 7-11 5-43 23-87 48l-34 20-33-23c-24-17-77-57-157-137-80-80-121-132-138-156l-22-33 19-34c20-33 42-74 49-87 6-10 6-17 6-19 0-1 0-1 0-1-15-24-112-170-130-196-2 0-7 0-14 5-55 40-113 96-121 118 6 117 109 281 291 463 183 181 347 284 464 290 22-8 79-65 119-120 2-4 4-9 4-13 0-1 0-2 0-3z" horiz-adv-x="1000" />
<glyph glyph-name="com-pictures" unicode="&#xe831;" d="m62 131v563c0 17 14 31 32 31h687c17 0 31-14 31-31v-31h63v62c0 35-28 63-63 63h-750c-34 0-62-28-62-63v-625c0-34 28-62 62-62h63v62h-31c-18 0-32 14-32 31z m344 282c-52 0-94-42-94-94 0-52 42-94 94-94 52 0 94 42 94 94 0 52-42 94-94 94z m0-125c-17 0-31 14-31 31 0 17 14 31 31 31 17 0 31-14 31-31 0-17-14-31-31-31z m531 312h-687c-35 0-63-28-63-62v-563c0-34 28-62 63-62h78l0-1 0 1h609c35 0 63 28 63 62v563c0 34-28 62-63 62z m0-594c0-17-14-31-31-31h-515l188 189 80-80-3-3 44-44 3 4 3-3 44 44-3 3 80 79 95-95 16 16v-79z m0 141l-64 64 2 2-44 44-2-2-1 1-46-47 1-1-79-79-80 79 1 2-47 47-2-2-1 1-44-44 1-1-235-236h-16c-17 0-31 14-31 31v500c0 18 14 32 31 32h625c17 0 31-14 31-32v-359z" horiz-adv-x="1000" />
<glyph glyph-name="com-voicemail" unicode="&#xe832;" d="m781 569c-121 0-219-98-219-219 0-61 26-117 67-156h-258c41 40 66 95 66 156 0 121-97 219-218 219-121 0-219-98-219-219 0-121 98-219 219-219h562c121 0 219 98 219 219 0 121-98 219-219 219z m-562-375c-87 0-157 70-157 156 0 86 70 156 157 156 86 0 156-70 156-156 0-86-70-156-156-156z m562 0c-86 0-156 70-156 156 0 86 70 156 156 156s156-70 156-156c0-86-69-156-156-156z" horiz-adv-x="1000" />
<glyph glyph-name="com-bell" unicode="&#xe833;" d="m500-119c41 0 74 27 87 63h-174c12-36 46-63 87-63z m375 188h-31v437c0 138-112 250-250 250h-32c0 35-27 63-62 63-35 0-63-28-63-63h-31c-138 0-250-112-250-250v-437h-31c-17 0-31-14-31-31s14-32 31-32h219 69 174 69 219c17 0 31 14 31 32s-14 31-31 31z m-94 0h-562v437c0 104 84 188 187 188h188c103 0 187-84 187-188v-437z" horiz-adv-x="1000" />
<glyph glyph-name="com-bell-a" unicode="&#xe834;" d="m906 100h-62v125 250c0 162-124 294-282 309 0 2 0 2 0 4 0 34-27 62-62 62-35 0-63-28-63-62 0-2 1-2 1-4-158-15-282-147-282-309v-250-125h-62v-62h253c-2-11-3-21-3-32 0-86 70-156 156-156 86 0 156 70 156 156 0 11-1 21-3 32h253v62z m-406-187c-52 0-94 42-94 93 0 11 3 22 7 32h174c4-10 7-21 7-32 0-51-42-93-94-93z m281 312v-125h-18-526-18v125 250c0 138 112 250 250 250h62c138 0 250-112 250-250v-250z" horiz-adv-x="1000" />
<glyph glyph-name="com-broadcast" unicode="&#xe835;" d="m742 663h-55v0h-30c-1 0-1 0-1 0h-31-63-468c-52 0-94-42-94-94v-313c0-51 42-93 94-93h104l52-313 250 125-47 188h109v-1h180l258-187v875l-258-187z m-444-719l-37 218h128l38-153-129-65z m264 281h-437-31c-18 0-32 14-32 31v313c0 17 14 31 32 31h31 437v-375z m125 0h-62v375h62v-375z m250-125l-187 134v357l187 134v-625z" horiz-adv-x="1000" />
<glyph glyph-name="com-broadcast-a" unicode="&#xe836;" d="m742 663h-242-250c-138 0-250-112-250-250 0-120 84-220 197-245l53-318 250 125-47 188h47 242l258-188v875l-258-187z m-444-719l-37 218h128l38-153-129-65z m389 281h-187-250c-104 0-188 84-188 188 0 103 84 187 188 187h250v0h187v-375z m250-125l-187 134v357l187 134v-625z" horiz-adv-x="1000" />
<glyph glyph-name="com-bubble" unicode="&#xe837;" d="m500 850c-276 0-500-196-500-437 0-138 73-261 187-342v-221l256 128c19-2 38-3 57-3 276 0 500 196 500 438 0 241-224 437-500 437z m0-812h-63l-187-94v163c-113 68-188 179-188 306 0 207 196 375 438 375 242 0 437-168 437-375 0-207-195-375-437-375z" horiz-adv-x="1000" />
<glyph glyph-name="com-bubble-a" unicode="&#xe838;" d="m812 850h-625c-103 0-187-84-187-187v-407c0-103 84-156 187-156h375l250-250v250c104 0 188 53 188 156v407c0 103-84 187-188 187z m125-594c0-69-56-93-125-93h-62v-157l-156 157h-407c-69 0-125 24-125 93v407c0 69 56 125 125 125h625c69 0 125-56 125-125v-407z" horiz-adv-x="1000" />
<glyph glyph-name="com-bubble-b" unicode="&#xe839;" d="m906 819h-812c-52 0-94-42-94-94v-625c0-52 42-93 94-93h281l125-126 125 126h281c52 0 94 41 94 93v625c0 52-42 94-94 94z m31-719c0-17-14-31-31-31h-312l-94-94-94 94h-312c-18 0-32 14-32 31v625c0 17 14 31 32 31h812c17 0 31-14 31-31v-625z" horiz-adv-x="1000" />
<glyph glyph-name="com-bubble-dot" unicode="&#xe83a;" d="m500 475c-35 0-63-28-63-62 0-35 28-63 63-63s62 28 62 63c0 34-27 62-62 62z m-250 0c-35 0-63-28-63-62 0-35 28-63 63-63 34 0 62 28 62 63 0 34-28 62-62 62z m250 375c-276 0-500-196-500-437 0-138 73-261 187-342v-221l257 128c18-2 37-3 56-3 276 0 500 196 500 438 0 241-224 437-500 437z m0-812c-51 0-61 0-63 0l-187-94v156 7c-113 68-188 179-188 306 0 207 196 375 438 375 242 0 437-168 437-375 0-207-195-375-437-375z m250 437c-35 0-63-28-63-62 0-35 28-63 63-63s62 28 62 63c0 34-27 62-62 62z" horiz-adv-x="1000" />
<glyph glyph-name="com-bubble-dot-a" unicode="&#xe83b;" d="m500 538c-35 0-63-28-63-63 0-34 28-62 63-62 35 0 62 28 62 62 0 35-27 63-62 63z m-250 0c-35 0-63-28-63-63 0-34 28-62 63-62s62 28 62 62c0 35-28 63-62 63z m562 312h-625c-103 0-187-84-187-187v-407c0-103 84-156 187-156h375l250-250v250c104 0 188 53 188 156v407c0 103-84 187-188 187z m125-594c0-69-56-93-125-93h-62v-157l-156 157h-407c-69 0-125 24-125 93v407c0 69 56 125 125 125h625c69 0 125-56 125-125v-407z m-187 282c-35 0-63-28-63-63 0-34 28-62 63-62s62 28 62 62c0 35-27 63-62 63z" horiz-adv-x="1000" />
<glyph glyph-name="doc-analytic-blank" unicode="&#xe83c;" d="m969 788h-94-750-94c-17 0-31-14-31-32 0-17 14-31 31-31h31v-562c0-35 28-63 63-63h270l-78-143c-9-14-4-32 13-41 16-8 38-3 47 11l87 160c3 4 4 9 4 13h64c0-4 1-9 4-13l87-160c9-14 31-19 47-11s22 27 13 41l-78 143h270c35 0 62 28 62 63v562h32c17 0 31 14 31 31 0 18-14 32-31 32z m-94-125v-469c0-17-14-31-31-31h-688c-17 0-31 14-31 31v500c0 0 0 0 0 0v31h31c0 0 0 0 0 0h688c0 0 0 0 0 0h31v-62z" horiz-adv-x="1000" />
<glyph glyph-name="doc-analytic-line" unicode="&#xe83d;" d="m590 554c-9 15-28 20-43 11-2-1-3-4-5-6-5-2-10-5-13-10l-148-126-135 156c-9 15-28 20-43 11-15-8-20-27-11-41l156-181c0-1 1-1 1-2 1-2 3-3 5-5 2-2 4-3 6-4 0-1 1-1 1-1 1-1 1-1 2-1 2-1 5-2 8-2 14-3 30 2 38 13l153 131 192-194c9-15 28-20 43-11 15 8 20 26 11 41l-218 221z m379 234h-94-750-94c-17 0-31-14-31-32 0-17 14-31 31-31h31v-562c0-35 28-63 63-63h270l-78-143c-9-14-4-32 13-41 16-8 38-3 47 11l87 160c3 4 4 9 4 13h64c0-4 1-9 4-13l87-160c9-14 31-19 47-11s22 27 13 41l-78 143h270c35 0 62 28 62 63v562h32c17 0 31 14 31 31 0 18-14 32-31 32z m-94-125v-469c0-17-14-31-31-31h-688c-17 0-31 14-31 31v500c0 0 0 0 0 0v31h31c0 0 0 0 0 0h688c0 0 0 0 0 0h31v-62z" horiz-adv-x="1000" />
<glyph glyph-name="doc-analytic-line-a" unicode="&#xe83e;" d="m969 788h-94-750-94c-17 0-31-14-31-32 0-17 14-31 31-31h31v-562c0-35 28-63 63-63h270l-78-143c-9-14-4-32 13-41 16-8 38-3 47 11l87 160c3 4 4 9 4 13h64c0-4 1-9 4-13l87-160c9-14 31-19 47-11s22 27 13 41l-78 143h270c35 0 62 28 62 63v562h32c17 0 31 14 31 31 0 18-14 32-31 32z m-94-125v-469c0-17-14-31-31-31h-688c-17 0-31 14-31 31v500c0 0 0 0 0 0v31h31c0 0 0 0 0 0h688c0 0 0 0 0 0h31v-62z m-78-61c-15 9-34 4-43-11l-193-177-152 109c-8 12-24 17-38 14-3-1-6-1-8-2-1-1-1-1-2-1 0 0-1-1-1-1-3-1-4-3-6-5-2-1-4-3-5-5 0 0-1-1-1-1l-156-187c-9-15-4-34 11-43 15-9 34-3 43 12l138 164 145-103c3-5 8-8 13-11 2-2 3-4 5-6 15-8 34-3 43 12l218 199c9 15 4 35-11 43z" horiz-adv-x="1000" />
<glyph glyph-name="doc-article" unicode="&#xe83f;" d="m187 413h250c35 0 63 28 63 62v188c0 34-28 62-63 62h-250c-34 0-62-28-62-62v-188c0-34 28-62 62-62z m0 218c0 18 14 32 32 32h187c17 0 31-14 31-32v-125c0-17-14-31-31-31h-187c-18 0-32 14-32 31v125z m657-531h-688c-17 0-31-14-31-31 0-17 14-31 31-31h688c17 0 31 14 31 31 0 17-14 31-31 31z m0 125h-688c-17 0-31-14-31-31 0-17 14-31 31-31h688c17 0 31 14 31 31 0 17-14 31-31 31z m0 500h-250c-17 0-32-14-32-31 0-17 15-31 32-31h250c17 0 31 14 31 31 0 17-14 31-31 31z m93 125h-875c-34 0-62-28-62-62v-875c0-35 28-63 62-63h875c35 0 63 28 63 63v875c0 34-28 62-63 62z m0-906c0-17-14-31-31-31h-812c-18 0-32 14-32 31v812c0 18 14 32 32 32h812c17 0 31-14 31-32v-812z m-93 656h-250c-17 0-32-14-32-31s15-31 32-31h250c17 0 31 14 31 31s-14 31-31 31z m0-125h-250c-17 0-32-14-32-31 0-17 15-31 32-31h250c17 0 31 14 31 31 0 17-14 31-31 31z m0-125h-688c-17 0-31-14-31-31 0-17 14-31 31-31h688c17 0 31 14 31 31 0 17-14 31-31 31z" horiz-adv-x="1000" />
<glyph glyph-name="doc-article-a" unicode="&#xe840;" d="m750 225h-375c-17 0-31-14-31-31 0-17 14-31 31-31h375c17 0 31 14 31 31 0 17-14 31-31 31z m125 625h-750c-52 0-94-42-94-94v-812c0-52 42-94 94-94h750c52 0 94 42 94 94v812c0 52-42 94-94 94z m-719-906c0-17-14-31-31-31s-31 14-31 31v812c0 18 14 32 31 32s31-14 31-32v-812z m750 0c0-17-14-31-31-31h-656v875h656c17 0 31-14 31-32v-812z m-156 656h-375c-17 0-31-14-31-31 0-17 14-31 31-31h375c17 0 31 14 31 31 0 17-14 31-31 31z m0-187h-375c-17 0-31-14-31-32 0-17 14-31 31-31h375c17 0 31 14 31 31 0 18-14 32-31 32z" horiz-adv-x="1000" />
<glyph glyph-name="doc-article-b" unicode="&#xe841;" d="m875 850h-750c-52 0-94-42-94-94v-812c0-52 42-94 94-94h750c52 0 94 42 94 94v812c0 52-42 94-94 94z m31-906c0-17-14-31-31-31h-750c-17 0-31 14-31 31v812c0 18 14 32 31 32h750c17 0 31-14 31-32v-812z m-156 281h-500c-17 0-31-14-31-31s14-31 31-31h500c17 0 31 14 31 31s-14 31-31 31z m0 188h-500c-17 0-31-14-31-32 0-17 14-31 31-31h500c17 0 31 14 31 31 0 18-14 32-31 32z m0 187h-500c-17 0-31-14-31-31s14-31 31-31h500c17 0 31 14 31 31s-14 31-31 31z" horiz-adv-x="1000" />
<glyph glyph-name="doc-attachment" unicode="&#xe842;" d="m830 531l-44-44-282-279-119-117c-74-73-194-73-268 0-74 73-74 191 0 264l119 118 104 102 79 78 10 10 45 44 44 44 0 0c1 1 1 1 2 2 49 48 129 48 178 0 49-49 49-128 0-176 0-1-1-1-1-2l0 0-45-44-45-44-10-10-79-78-49-48-48-48-47-47-79-77c-24-25-64-25-89 0s-24 64 0 88l45 44 33 33 48 47 48 48 94 92 46 46 43 42-45 44-31-30-50-50-52-52-68-66-56-56-55-54-44-44 0 0c-48-49-48-127 1-175 49-48 127-48 177-1l0 0 99 98 57 56 156 154 45 44 44 44c74 73 74 192 0 264-74 73-193 73-267 0l-45-44-44-44-313-308 0 0c-97-98-96-254 2-351 98-97 256-97 355-1l0 0 401 396 45 44-45 44z" horiz-adv-x="1000" />
<glyph glyph-name="doc-attachment-a" unicode="&#xe843;" d="m625 787v-626c0-104-84-188-187-188-104 0-188 84-188 188v564h0c0 0 0 1 0 2 0 69 56 125 125 125 69 0 125-56 125-125 0-1 0-2 0-2h0v-564c0-35-28-63-62-63s-63 28-63 63v501h-62v-501h0c1-68 56-123 125-123 68 0 123 55 124 123h1v564c0 103-84 188-188 188s-187-85-187-188v-564h0c1-137 112-249 249-249 138 0 249 112 250 249h1v626h-63z" horiz-adv-x="1000" />
<glyph glyph-name="doc-binder-blank" unicode="&#xe844;" d="m875 850h-750c-69 0-125-56-125-125v-750c0-69 56-125 125-125h750c69 0 125 56 125 125v750c0 69-56 125-125 125z m62-875c0-35-27-62-62-62h-750c-35 0-63 27-63 62v750c0 35 28 63 63 63h750c35 0 62-28 62-63v-750z" horiz-adv-x="1000" />
<glyph glyph-name="doc-binder-four" unicode="&#xe845;" d="m875 850h-750c-69 0-125-56-125-125v-750c0-69 56-125 125-125h750c69 0 125 56 125 125v750c0 69-56 125-125 125z m62-875c0-35-27-62-62-62h-750c-35 0-63 27-63 62v750c0 35 28 63 63 63h750c35 0 62-28 62-63v-750z m-218 125h-438c-17 0-31-14-31-31s14-31 31-31h438c17 0 31 14 31 31s-14 31-31 31z m0 188h-438c-17 0-31-14-31-32 0-17 14-31 31-31h438c17 0 31 14 31 31 0 18-14 32-31 32z m0 375h-438c-17 0-31-14-31-32 0-17 14-31 31-31h438c17 0 31 14 31 31 0 18-14 32-31 32z m0-188h-438c-17 0-31-14-31-31 0-17 14-31 31-31h438c17 0 31 14 31 31 0 17-14 31-31 31z" horiz-adv-x="1000" />
<glyph glyph-name="doc-binder-one" unicode="&#xe846;" d="m719 350h-438c-17 0-31-14-31-31 0-17 14-31 31-31h438c17 0 31 14 31 31 0 17-14 31-31 31z m156 500h-750c-69 0-125-56-125-125v-750c0-69 56-125 125-125h750c69 0 125 56 125 125v750c0 69-56 125-125 125z m62-875c0-35-27-62-62-62h-750c-35 0-63 27-63 62v750c0 35 28 63 63 63h750c35 0 62-28 62-63v-750z" horiz-adv-x="1000" />
<glyph glyph-name="doc-binder-three" unicode="&#xe847;" d="m719 350h-438c-17 0-31-14-31-31 0-17 14-31 31-31h438c17 0 31 14 31 31 0 17-14 31-31 31z m0-187h-438c-17 0-31-14-31-32 0-17 14-31 31-31h438c17 0 31 14 31 31 0 18-14 32-31 32z m0 375h-438c-17 0-31-14-31-32s14-31 31-31h438c17 0 31 14 31 31s-14 32-31 32z m156 312h-750c-69 0-125-56-125-125v-750c0-69 56-125 125-125h750c69 0 125 56 125 125v750c0 69-56 125-125 125z m62-875c0-35-27-62-62-62h-750c-35 0-63 27-63 62v750c0 35 28 63 63 63h750c35 0 62-28 62-63v-750z" horiz-adv-x="1000" />
<glyph glyph-name="doc-binder-two" unicode="&#xe848;" d="m719 288h-438c-17 0-31-14-31-32 0-17 14-31 31-31h438c17 0 31 14 31 31 0 18-14 32-31 32z m0 187h-438c-17 0-31-14-31-31 0-17 14-31 31-31h438c17 0 31 14 31 31 0 17-14 31-31 31z m156 375h-750c-69 0-125-56-125-125v-750c0-69 56-125 125-125h750c69 0 125 56 125 125v750c0 69-56 125-125 125z m62-875c0-35-27-62-62-62h-750c-35 0-63 27-63 62v750c0 35 28 63 63 63h750c35 0 62-28 62-63v-750z" horiz-adv-x="1000" />
<glyph glyph-name="doc-binder-zero" unicode="&#xe849;" d="m875 850h-750c-69 0-125-56-125-125v-750c0-69 56-125 125-125h750c69 0 125 56 125 125v750c0 69-56 125-125 125z m62-875c0-34-27-62-62-62h-750c-35 0-63 28-63 62v750c0 35 28 63 63 63h750c35 0 62-28 62-63v-750z m-437 688c-173 0-313-140-313-313 0-172 140-312 313-312s312 140 312 312c0 173-139 313-312 313z m0-563c-138 0-250 112-250 250 0 138 112 250 250 250 138 0 250-112 250-250 0-138-112-250-250-250z" horiz-adv-x="1000" />
<glyph glyph-name="doc-book" unicode="&#xe84a;" d="m625 506c0 0 62 32 125 32s94-32 94-32v63c0 0-35 31-100 31-60 0-119-31-119-31v-63z m-469-125v-62c0 0 31 31 94 31s125-31 125-31v62c0 0-66 32-131 32-60 0-88-32-88-32z m0-187v-63c0 0 31 32 94 32s125-32 125-32v63c0 0-66 31-131 31-60 0-88-31-88-31z m0 375v-63c0 0 31 32 94 32s125-32 125-32v63c0 0-66 31-131 31-60 0-88-31-88-31z m469-188v-62c0 0 62 31 125 31s94-31 94-31v62c0 0-35 32-100 32-60 0-119-32-119-32z m0-187v-63c0 0 62 32 125 32s94-32 94-32v63c0 0-35 31-100 31-60 0-119-31-119-31z m96 625c-115 0-221-63-221-63s-106 63-221 63c-134 0-248-63-248-63v-875c0 0 119 63 254 63 112 0 215-63 215-63s103 63 215 63c135 0 254-63 254-63v875c0 0-114 63-248 63z m-252-836c-41 9-116 23-191 23-108 0-184-31-184-31v719c0 0 78 62 187 62 74 0 148-28 188-47v-726z m437-8c0 0-76 31-184 31-75 0-150-14-191-23v726c40 19 114 47 188 47 109 0 187-62 187-62v-719z" horiz-adv-x="1000" />
<glyph glyph-name="doc-book-a" unicode="&#xe84b;" d="m1000 475v250h-125v63c0 34-28 62-63 62h-750c-34 0-62-28-62-62v-875c0-35 28-63 62-63h750c35 0 63 28 63 63v62h62v125h-62v125h62v125h-62v125h125z m-125 188h62v-125h-62v125z m-63 62v-250-125-125-125-125-31c0-17-14-31-31-31h-687c-18 0-32 14-32 31v812c0 18 14 32 32 32h687c17 0 31-14 31-32v-31z m-187-62h-375c-35 0-63-28-63-63v-187c0-35 28-63 63-63h375c35 0 62 28 62 63v187c0 35-27 63-62 63z m0-219c0-17-14-31-31-31h-313c-17 0-31 14-31 31v125c0 17 14 31 31 31h313c17 0 31-14 31-31v-125z m31-344h-437c-18 0-32-14-32-31s14-31 32-31h437c17 0 31 14 31 31s-14 31-31 31z m0 125h-437c-18 0-32-14-32-31s14-31 32-31h437c17 0 31 14 31 31s-14 31-31 31z" horiz-adv-x="1000" />
<glyph glyph-name="doc-book-b" unicode="&#xe84c;" d="m594 569h125v62h-125v-62z m0-375h125v62h-125v-62z m0 250h125v62h-125v-62z m0-125h125v62h-125v-62z m-188-63h-125v-62h125v62z m500 500h-62c0 35-28 63-63 63h-562c-35 0-63-28-63-63h-62c-35 0-63-28-63-62v-750c0-35 28-63 63-63h812c35 0 63 28 63 63v750c0 34-28 62-63 62z m-375 0h219c17 0 31-14 31-31v-625c0-17-14-31-31-31h-219v687z m-312-31c0 17 14 31 31 31h219v-687h-219c-17 0-31 14-31 31v625z m687-750c0-17-14-31-31-31h-750c-17 0-31 14-31 31v688c0 17 14 31 31 31h31v-625c0-35 28-63 63-63h562c35 0 63 28 63 63v625h31c17 0 31-14 31-31v-688z m-500 406h-125v-62h125v62z m0 125h-125v-62h125v62z m0 125h-125v-62h125v62z" horiz-adv-x="1000" />
<glyph glyph-name="doc-book-c" unicode="&#xe84d;" d="m500 756l-469 63v-813l469-125 469 125v813 0l-469-63z m-31-804l-375 100v696l375-50v-746z m437 100l-375-100v746l375 50v-696z" horiz-adv-x="1000" />
<glyph glyph-name="doc-book-d" unicode="&#xe84e;" d="m875 850h-63-687c-69 0-125-56-125-125v-594-31-125c0-69 56-125 125-125h687 125 63v188 62 625 125h-125z m62-937h-62-63-687c-35 0-63 28-63 62 0 35 28 63 63 63h687 63 45 17v-125z m0 812v-594-31h-125-687c-23 0-44-6-63-17v17 31 594c0 35 28 63 63 63h750 62v-63z m-125 0h-625c-34 0-62-28-62-62v-125c0-35 28-63 62-63h625c35 0 63 28 63 63v125c0 34-28 62-63 62z m0-156c0-17-14-31-31-31h-562c-18 0-32 14-32 31v62c0 18 14 32 32 32h562c17 0 31-14 31-32v-62z" horiz-adv-x="1000" />
<glyph glyph-name="doc-bookmark" unicode="&#xe84f;" d="m781 819h-562c-35 0-63-28-63-63v-812c0-35 59-63 94-63l247 313 253-313c35 0 94 28 94 63v812c0 35-28 63-63 63z m0-813c0-17-14-31-31-31l-250 313-250-313c-17 0-31 14-31 31v719c0 17 14 31 31 31h500c17 0 31-14 31-31v-719z" horiz-adv-x="1000" />
<glyph glyph-name="doc-book-mark" unicode="&#xe850;" d="m875 850h-63-250-375-62c-69 0-125-56-125-125v-594-31-125c0-69 56-125 125-125h687 125 63v188 62 625 125h-125z m-625-62h250v-375l-125 71-125-71v375z m687-875h-62-63-687c-35 0-63 28-63 62 0 35 28 63 63 63h687 63 45 17v-125z m0 812v-594-31h-125-687c-23 0-44-6-63-17v17 31 594c0 35 28 63 63 63h62v-500l188 125 187-125v500h313 62v-63z" horiz-adv-x="1000" />
<glyph glyph-name="doc-box" unicode="&#xe851;" d="m937 819h-875c-34 0-62-28-62-63v-250c0-34 28-62 62-62v-500c0-35 28-63 63-63h750c35 0 62 28 62 63v500c35 0 63 28 63 62v250c0 35-28 63-63 63z m-62-844c0-17-14-31-31-31h-688c-17 0-31 14-31 31v438c0 17 14 31 31 31h156v-125c0-35 28-63 63-63h250c35 0 62 28 62 63v125h157c17 0 31-14 31-31v-438z m-500 375v31 32 31h31 188 31v-31-32-31c0-17-14-31-31-31h-188c-17 0-31 14-31 31z m562 188c0-18-14-32-31-32h-281-250-281c-18 0-32 14-32 32v187c0 17 14 31 32 31h812c17 0 31-14 31-31v-187z" horiz-adv-x="1000" />
<glyph glyph-name="doc-briefcase" unicode="&#xe852;" d="m875 694h-188v94c0 17-14 31-31 31h-312c-18 0-32-14-32-31v-94h-187c-69 0-125-56-125-125v-563c0-69 56-125 125-125h750c69 0 125 56 125 125v563c0 69-56 125-125 125z m-500 62h250v-62h-250v62z m562-750c0-34-27-62-62-62h-750c-35 0-63 28-63 62v563c0 34 28 62 63 62h750c35 0 62-28 62-62v-563z" horiz-adv-x="1000" />
<glyph glyph-name="doc-briefcase-a" unicode="&#xe853;" d="m875 694h-188v94c0 17-14 31-31 31h-312c-18 0-32-14-32-31v-94h-187c-69 0-125-56-125-125v-188-62-313c0-69 56-125 125-125h750c69 0 125 56 125 125v313 62 188c0 69-56 125-125 125z m-500 62h250v-62h-250v62z m562-750c0-34-27-62-62-62h-750c-35 0-63 28-63 62v313h250v-188h375v188h250v-313z m-562 188v125h250v-125h-250z m562 187h-250-375-250v188c0 34 28 62 63 62h750c35 0 62-28 62-62v-188z" horiz-adv-x="1000" />
<glyph glyph-name="doc-briefcase-b" unicode="&#xe854;" d="m875 694h-188v94c0 17-14 31-31 31h-312c-18 0-32-14-32-31v-94h-187c-69 0-125-56-125-125v-563c0-69 56-125 125-125h750c69 0 125 56 125 125v563c0 69-56 125-125 125z m-500 0v31 31h250v-62l-250 0 0 0z m562-688c0-34-27-62-62-62h-750c-35 0-63 28-63 62v375h875v-375z m0 438h-875v125c0 34 28 62 63 62h750c35 0 62-28 62-62v-125z" horiz-adv-x="1000" />
<glyph glyph-name="doc-briefcase-c" unicode="&#xe855;" d="m875 694h-188v94c0 17-14 31-31 31h-312c-18 0-32-14-32-31v-94h-187c-69 0-125-56-125-125v-563c0-69 56-125 125-125h750c69 0 125 56 125 125v563c0 69-56 125-125 125z m-500 0v31 31h250v-62l-250 0 0 0z m-188-750h-62c-35 0-63 28-63 62v375h125v-437z m563 0h-500v437h500v-437z m187 62c0-34-27-62-62-62h-63v437h125v-375z m0 438h-875v125c0 34 28 62 63 62h750c35 0 62-28 62-62v-125z" horiz-adv-x="1000" />
<glyph glyph-name="doc-briefcase-d" unicode="&#xe856;" d="m875 694h-188v94c0 17-14 31-31 31h-312c-18 0-32-14-32-31v-94h-187c-69 0-125-56-125-125v-563c0-69 56-125 125-125h750c69 0 125 56 125 125v563c0 69-56 125-125 125z m-500 0v31 31h250v-62l-250 0 0 0z m-188-750h-62c-35 0-63 28-63 62v563c0 34 28 62 63 62h62v-687z m563 0h-500v687h500v-687z m187 62c0-34-27-62-62-62h-63v687h63c35 0 62-28 62-62v-563z" horiz-adv-x="1000" />
<glyph glyph-name="doc-compose" unicode="&#xe857;" d="m231 301l-22-22-22-242 242 22 24 24 42 42 505 506-220 219-131-132v0l-44-44-358-357-16-16z m549 461l132-131-88-88-131 131 87 88z m-131-131l131-132-329-330-132 132 330 330z m-374-374l132-132-154-22 22 154z m600-344h-813v812h500v63h-562v-938h937v563h-62v-500z" horiz-adv-x="1000" />
<glyph glyph-name="doc-compose-a" unicode="&#xe858;" d="m937-88h-875v875h563v63h-563c-34 0-62-28-62-63v-875c0-34 28-62 62-62h875c35 0 63 28 63 62v625h-63v-625z m-720 338l0-2-61-203 44-39 195 68 2-1h10l471 466 97 98c37 37 31 110-6 147l-42 39c-37 37-101 37-137 0l-91-105-482-456v-12z m613 534c6 6 15 9 23 9s22-9 28-15l50-51c12-13 12-33 0-45l-71-71-101 103 71 70z m-104-113l96-98-437-435-99 100 440 433z m-467-478l85-83-125-42 40 125z" horiz-adv-x="1000" />
<glyph glyph-name="doc-documents" unicode="&#xe859;" d="m875 850h-500c-35 0-63-28-63-62v-63h63v31c0 18 14 32 31 32h438c17 0 31-14 31-32v-625c0-17-14-31-31-31h-32v-62h63c35 0 62 27 62 62v688c0 34-27 62-62 62z m-188-187h-562c-35 0-63-28-63-63v-687c0-35 28-63 63-63h562c35 0 63 28 63 63v687c0 35-28 63-63 63z m0-719c0-17-14-31-31-31h-500c-17 0-31 14-31 31v625c0 17 14 31 31 31h500c17 0 31-14 31-31v-625z" horiz-adv-x="1000" />
<glyph glyph-name="doc-documents-minus" unicode="&#xe85a;" d="m250 225h312v63h-312v-63z m437 438h-562c-35 0-63-28-63-63v-687c0-35 28-63 63-63h562c35 0 63 28 63 63v687c0 35-28 63-63 63z m0-719c0-17-14-31-31-31h-500c-17 0-31 14-31 31v625c0 17 14 31 31 31h500c17 0 31-14 31-31v-625z m188 906h-500c-35 0-63-28-63-62v-63h63v31c0 18 14 32 31 32h438c17 0 31-14 31-32v-625c0-17-14-31-31-31h-32v-62h63c35 0 62 27 62 62v688c0 34-27 62-62 62z" horiz-adv-x="1000" />
<glyph glyph-name="doc-documents-plus" unicode="&#xe85b;" d="m437 413h-62v-125h-125v-63h125v-125h62v125h125v63h-125v125z m250 250h-562c-35 0-63-28-63-63v-687c0-35 28-63 63-63h562c35 0 63 28 63 63v687c0 35-28 63-63 63z m0-719c0-17-14-31-31-31h-500c-17 0-31 14-31 31v625c0 17 14 31 31 31h500c17 0 31-14 31-31v-625z m188 906h-500c-35 0-63-28-63-62v-63h63v31c0 18 14 32 31 32h438c17 0 31-14 31-32v-625c0-17-14-31-31-31h-32v-62h63c35 0 62 27 62 62v688c0 34-27 62-62 62z" horiz-adv-x="1000" />
<glyph glyph-name="doc-download" unicode="&#xe85c;" d="m475 51c0 0 1-1 1-1 1-1 1-3 2-3 1-2 3-1 4-2 4-4 10-6 16-7 0 0 1 0 2 0 0 0 0 0 0 0 0 0 0 0 0 0 1 0 1 0 2 0 7 0 14 3 19 8 0 0 1 0 1 1 1 0 1 1 1 1 0 0 0 1 1 1l311 343c12 12 12 31 0 43-12 12-31 12-43 0l-261-286v670c0 17-14 31-31 31-17 0-31-14-31-31v-670l-261 286c-12 12-31 12-43 0-12-12-12-31 0-43l310-341z m400-138h-750c-17 0-31-14-31-32 0-17 14-31 31-31h750c17 0 31 14 31 31 0 18-14 32-31 32z" horiz-adv-x="1000" />
<glyph glyph-name="doc-drawer" unicode="&#xe85d;" d="m250 288h500v62h-500v-62z m-188 500h188v-63l-63 0v-125h63v63l625 0v-63h62v125h-625v125h-312v-250h62v188z m-62-250l62-688h875l63 688h-1000z m875-625h-750l-63 562h875l-62-562z" horiz-adv-x="1000" />
<glyph glyph-name="doc-drawer-a" unicode="&#xe85e;" d="m812 725h-625c-34 0-62-28-62-62v-500c0-35 28-63 62-63h125v-62c0-35 28-63 63-63h250c35 0 62 28 62 63v62h125c35 0 63 28 63 63v500c0 34-28 62-63 62z m0-531c0-17-14-31-31-31h-156v-125h-31-188-31v125h-156c-18 0-32 14-32 31v437c0 18 14 32 32 32h562c17 0 31-14 31-32v-437z m125 656h-875c-34 0-62-28-62-62v-876c0-34 28-62 62-62h875c35 0 63 28 63 62v876c0 34-28 62-63 62z m0-906c0-18-14-31-31-31h-812c-18 0-32 13-32 31v812c0 18 14 32 32 32h812c17 0 31-14 31-32v-812z" horiz-adv-x="1000" />
<glyph glyph-name="doc-drawer-b" unicode="&#xe85f;" d="m312 288h375v62h-375v-62z m0 187h375v63h-375v-63z m625 375h-875c-34 0-62-28-62-62v-876c0-34 28-62 62-62h875c35 0 63 28 63 62v876c0 34-28 62-63 62z m0-906c0-18-14-31-31-31h-812c-18 0-32 13-32 31v812c0 18 14 32 32 32h812c17 0 31-14 31-32v-812z m-125 781h-625c-34 0-62-28-62-62v-500c0-35 28-63 62-63h125v-62c0-35 28-63 63-63h250c35 0 62 28 62 63v62h125c35 0 63 28 63 63v500c0 34-28 62-63 62z m0-531c0-17-14-31-31-31h-156v-94c0-17-14-31-31-31h-188c-17 0-31 14-31 31v94h-156c-18 0-32 14-32 31v437c0 18 14 32 32 32h562c17 0 31-14 31-32v-437z" horiz-adv-x="1000" />
<glyph glyph-name="doc-drawer-blank" unicode="&#xe860;" d="m875 850h-750l-125-562v-63-312c0-35 28-63 62-63h875c35 0 63 28 63 63v312 63l-125 562z m62-906c0-17-14-31-31-31h-812c-18 0-32 14-32 31v250c0 17 14 31 32 31h156v-125h500v125h156c17 0 31-14 31-31v-250z m-250 344v-125h-375v125h-250l125 500h625l125-500h-250z" horiz-adv-x="1000" />
<glyph glyph-name="doc-drawer-download" unicode="&#xe861;" d="m292 478l177-178c5-5 11-7 17-9 4-2 9-3 14-3h0c0 0 0 0 0 0 0 0 0 0 0 0 6 0 11 1 15 4 5 2 10 4 14 8l177 178c14 14 14 37 0 51-14 14-36 14-51 0l-123-124v414c0 17-14 31-32 31-18 0-32-14-32-31v-416l-126 126c-14 14-36 14-50 0-15-14-15-37 0-51z m552 247h-63-62v-62h80l107-375h-250v-125h-312v125h-250l107 375h80v62h-62-63l-125-437v-63-313c0-34 28-62 63-62h812c35 0 63 28 63 62v313 63l-125 437z m62-781c0-17-14-31-31-31h-750c-17 0-31 14-31 31v250c0 17 14 31 31 31h156v-125h438v125h156c17 0 31-14 31-31v-250z" horiz-adv-x="1000" />
<glyph glyph-name="doc-drawer-line" unicode="&#xe862;" d="m344 600h312c17 0 31 14 31 31 0 18-14 32-31 32h-312c-18 0-32-14-32-32 0-17 14-31 32-31z m531 250h-750l-125-562v-63-312c0-35 28-63 62-63h875c35 0 63 28 63 63v312 63l-125 562z m62-906c0-17-14-31-31-31h-812c-18 0-32 14-32 31v250c0 17 14 31 32 31h187v-125h438v125h187c17 0 31-14 31-31v-250z m-281 344v-125h-312v125h-282l125 500h625l125-500h-281z m-375 187h438c17 0 31 14 31 31s-14 32-31 32h-438c-17 0-31-14-31-32s14-31 31-31z m500-62h-562c-18 0-32-14-32-32s14-31 32-31h562c17 0 31 14 31 31s-14 32-31 32z" horiz-adv-x="1000" />
<glyph glyph-name="doc-drawer-upload" unicode="&#xe863;" d="m844 725h-63v0-62h18l107-375h-250v-125h-312v125h-250l107 375h18v62 0h-63l-125-437v-63-312c0-35 28-63 63-63h812c35 0 63 28 63 63v312 63l-125 437z m62-781c0-17-14-31-31-31h-750c-17 0-31 14-31 31v250c0 17 14 31 31 31h156v-125h438v125h156c17 0 31-14 31-31v-250z m-564 669l113 112 14 14v-14-406c0-17 14-31 31-31h0 0c0 0 0 0 0 0h0c17 0 31 14 31 31v406 12l12-12h0l113-112c14-14 36-14 50 0 14 14 14 36 0 50l-62 62h0l-115 115c-7 8-17 11-28 10 0 0 0 0-1 0-1 0-2 0-3 0-10 1-21-2-29-10l-114-115h-1l-62-62c-14-14-14-37 0-51 14-13 37-13 51 1z" horiz-adv-x="1000" />
<glyph glyph-name="doc-envelope" unicode="&#xe864;" d="m906 850h-812c-35 0-63-28-63-62v-875c0-35 28-63 63-63h812c35 0 63 28 63 63v875c0 34-28 62-63 62z m-781-62h750c32 0-125-125-125-125h-500c0 0-157 125-125 125z m-31-63l125-125h250v-500h-250l-125-125v750z m781-812h-750c-31 0 125 125 125 125h500c0 0 156-125 125-125z m31 62l-125 125h-250v500h250l125 125v-750z" horiz-adv-x="1000" />
<glyph glyph-name="doc-file-blank" unicode="&#xe865;" d="m906 819c0 17-14 31-31 31h-750c-17 0-31-14-31-31v-938c0-17 14-31 31-31h531v0l250 250 0 0h0v719z m-250-892v173h173l-173-173z m188 236h-188-62v-63-187h-407c-17 0-31 14-31 31v812c0 18 14 32 31 32h625c18 0 32-14 32-32v-593z" horiz-adv-x="1000" />
<glyph glyph-name="doc-file-blank-a" unicode="&#xe866;" d="m906 600l-250 250v0h-531c-17 0-31-14-31-31v-938c0-17 14-31 31-31h750c17 0 31 14 31 31v719 0h0z m-250 173l173-173h-173v173z m188-829c0-17-14-31-32-31h-625c-17 0-31 14-31 31v812c0 18 14 32 31 32h407v-188-62h62 188v-594z" horiz-adv-x="1000" />
<glyph glyph-name="doc-file-cross" unicode="&#xe867;" d="m609 537l-109-109-109 109-47-46 109-110-109-109 47-47 109 110 109-110 47 47-109 109 109 110-47 46z m297 282c0 17-14 31-31 31h-750c-17 0-31-14-31-31v-938c0-17 14-31 31-31h531v0l250 250 0 0h0v719z m-250-892v173h173l-173-173z m188 236h-188-62v-63-187h-407c-17 0-31 14-31 31v812c0 18 14 32 31 32h625c18 0 32-14 32-32v-593z" horiz-adv-x="1000" />
<glyph glyph-name="doc-file-cross-a" unicode="&#xe868;" d="m609 475l-109-109-109 109-47-47 109-109-109-109 47-47 109 109 109-109 47 47-109 109 109 109-47 47z m297 125l-250 250v0h-531c-17 0-31-14-31-31v-938c0-17 14-31 31-31h750c17 0 31 14 31 31v719 0h0z m-250 173l173-173h-173v173z m188-829c0-17-14-31-32-31h-625c-17 0-31 14-31 31v812c0 18 14 32 31 32h407v-188-62h62 188v-594z" horiz-adv-x="1000" />
<glyph glyph-name="doc-file-line" unicode="&#xe869;" d="m687 413h-375c-17 0-31-14-31-32 0-17 14-31 31-31h375c18 0 32 14 32 31 0 18-14 32-32 32z m0 187h-375c-17 0-31-14-31-31s14-31 31-31h375c18 0 32 14 32 31s-14 31-32 31z m219 219c0 17-14 31-31 31h-750c-17 0-31-14-31-31v-938c0-17 14-31 31-31h531l0 0 250 250 0 0h0v719z m-250-892v173h173l-173-173z m188 236h-188-62v-63-187h-407c-17 0-31 14-31 31v812c0 18 14 32 31 32h625c18 0 32-14 32-32v-593z" horiz-adv-x="1000" />
<glyph glyph-name="doc-file-line-a" unicode="&#xe86a;" d="m687 163h-375c-17 0-31-14-31-32 0-17 14-31 31-31h375c18 0 32 14 32 31 0 18-14 32-32 32z m-406 156c0-17 14-31 31-31h375c18 0 32 14 32 31s-14 31-32 31h-375c-17 0-31-14-31-31z m625 281l-250 250v0h-531c-17 0-31-14-31-31v-938c0-17 14-31 31-31h750c17 0 31 14 31 31v719 0h0z m-250 173l173-173h-173v173z m188-829c0-17-14-31-32-31h-625c-17 0-31 14-31 31v812c0 18 14 32 31 32h407v-188-62h62 188v-594z" horiz-adv-x="1000" />
<glyph glyph-name="doc-file-minus" unicode="&#xe86b;" d="m906 819c0 17-14 31-31 31h-750c-17 0-31-14-31-31v-938c0-17 14-31 31-31h531l0 0 250 250 0 0h0v719z m-250-892v173h173l-173-173z m188 236h-188-62v-63-187h-407c-17 0-31 14-31 31v812c0 18 14 32 31 32h625c18 0 32-14 32-32v-593z m-500 187h312v63h-312v-63z" horiz-adv-x="1000" />
<glyph glyph-name="doc-file-minus-a" unicode="&#xe86c;" d="m344 288h312v62h-312v-62z m562 312l-250 250v0h-531c-17 0-31-14-31-31v-938c0-17 14-31 31-31h750c17 0 31 14 31 31v719 0h0z m-250 173l173-173h-173v173z m188-829c0-17-14-31-32-31h-625c-17 0-31 14-31 31v812c0 18 14 32 31 32h407v-188-62h62 188v-594z" horiz-adv-x="1000" />
<glyph glyph-name="doc-file-plus" unicode="&#xe86d;" d="m531 538h-62v-125h-125v-63h125v-125h62v125h125v63h-125v125z m375 281c0 17-14 31-31 31h-750c-17 0-31-14-31-31v-938c0-17 14-31 31-31h531l0 0 250 250 0 0h0v719z m-250-892v173h173l-173-173z m188 236h-188-62v-63-187h-407c-17 0-31 14-31 31v812c0 18 14 32 31 32h625c18 0 32-14 32-32v-593z" horiz-adv-x="1000" />
<glyph glyph-name="doc-file-plus-a" unicode="&#xe86e;" d="m531 475h-62v-125h-125v-62h125v-125h62v125h125v62h-125v125z m375 125l-250 250v0h-531c-17 0-31-14-31-31v-938c0-17 14-31 31-31h750c17 0 31 14 31 31v719 0h0z m-250 173l173-173h-173v173z m188-829c0-17-14-31-32-31h-625c-17 0-31 14-31 31v812c0 18 14 32 31 32h407v-188-62h62 188v-594z" horiz-adv-x="1000" />
<glyph glyph-name="doc-file-stack" unicode="&#xe86f;" d="m94 663h812c17 0 31 14 31 31 0 17-14 31-31 31h-812c-18 0-32-14-32-31 0-17 14-31 32-31z m125 125h593c18 0 32 14 32 31 0 17-14 31-32 31h-593c-18 0-32-14-32-31 0-17 14-31 32-31z m-219-188v-750h1000v750h-1000z m937-687h-875v625h875v-625z" horiz-adv-x="1000" />
<glyph glyph-name="doc-file-tick" unicode="&#xe870;" d="m451 253l-97 97-41-42 97-97-4-4 45-45 4 4 3-3 42 41-4 4 223 223-45 45-223-223z m455 566c0 17-14 31-31 31h-750c-17 0-31-14-31-31v-938c0-17 14-31 31-31h531l0 0 250 250 0 0h0v719z m-250-892v173h173l-173-173z m188 236h-188-62v-63-187h-407c-17 0-31 14-31 31v812c0 18 14 32 31 32h625c18 0 32-14 32-32v-593z" horiz-adv-x="1000" />
<glyph glyph-name="doc-file-tick-a" unicode="&#xe871;" d="m906 600l-250 250v0h-531c-17 0-31-14-31-31v-938c0-17 14-31 31-31h750c17 0 31 14 31 31v719 0h0z m-250 173l173-173h-173v173z m188-829c0-17-14-31-32-31h-625c-17 0-31 14-31 31v812c0 18 14 32 31 32h407v-188-62h62 188v-594z m-490 343l-41-41 97-97-4-4 45-45 4 4 3-4 42 42-4 3 223 223-45 45-222-223-98 97z" horiz-adv-x="1000" />
<glyph glyph-name="doc-folder" unicode="&#xe872;" d="m937 725h-500v63c0 34-27 62-62 62h-313c-34 0-62-28-62-62v-125-63-62-625c0-35 28-63 62-63h875c35 0 63 28 63 63v625 125c0 34-28 62-63 62z m0-219v-31-531c0-18-14-31-31-31h-812c-18 0-32 13-32 31v531 31 32h32 812 31v-32z m-31 94h-62-782v63 31 31 31c0 18 14 32 32 32h250c17 0 31-14 31-32v-31-31-31h469 62c17 0 31-14 31-32s-14-31-31-31z" horiz-adv-x="1000" />
<glyph glyph-name="doc-folder-a" unicode="&#xe873;" d="m844 725h-313c0 69-56 125-125 125h-250c-69 0-125-56-125-125v-187-63-500c0-69 56-125 125-125h688c69 0 125 56 125 125v438 62 63 62c0 69-56 125-125 125z m62-312v-108-330c0-35-28-62-62-62h-688c-34 0-62 27-62 62v392 46 62h812v-62z m0 125h-812v62 63 62c0 35 28 63 62 63h250c35 0 63-28 63-63v-62h62 250 63c34 0 62-28 62-63v-62z" horiz-adv-x="1000" />
<glyph glyph-name="doc-folder-check-a" unicode="&#xe874;" d="m412 53c1-1 1-3 2-4 6-6 15-9 23-9 5 0 9 3 13 6 3 1 6 1 9 3l250 248c12 12 12 32 0 44-12 12-32 12-45 0l-226-224-107 99c-12 13-31 13-43 0-11-14-11-35 0-49l124-114z m432 672h-313c0 69-56 125-125 125h-250c-69 0-125-56-125-125v-187-63-500c0-69 56-125 125-125h688c69 0 125 56 125 125v438 62 63 62c0 69-56 125-125 125z m62-312v-108-330c0-35-28-62-62-62h-688c-34 0-62 27-62 62v392 46 62h812v-62z m0 125h-812v62 63 62c0 35 28 63 62 63h250c35 0 63-28 63-63v-62h62 250 63c34 0 62-28 62-63v-62z" horiz-adv-x="1000" />
<glyph glyph-name="doc-folder-cross" unicode="&#xe875;" d="m937 725h-500v63c0 34-27 62-62 62h-313c-34 0-62-28-62-62v-125-63-62-625c0-35 28-63 62-63h875c35 0 63 28 63 63v625 125c0 34-28 62-63 62z m0-219v-31-531c0-17-14-31-31-31h-812c-18 0-32 14-32 31v531 31 32h32 812 31v-32z m-31 94h-62-782v63 31 31 31c0 18 14 32 32 32h250c17 0 31-14 31-32v-31-31-31h469 62c17 0 31-14 31-32 0-17-14-31-31-31z m-228-196c-13 12-33 12-45 0l-134-134-133 134c-12 12-32 12-45 0s-12-33 0-45l134-133-134-134c-12-12-12-32 0-45 13-12 33-12 45 0l133 134 134-134c12-12 32-12 45 0 12 13 12 33 0 45l-134 134 134 133c12 12 12 33 0 45z" horiz-adv-x="1000" />
<glyph glyph-name="doc-folder-cross-a" unicode="&#xe876;" d="m457 195l-106-106c-12-12-12-31 0-42 11-12 30-12 42 0l106 105 106-105c12-12 30-12 42 0s12 30 0 42l-106 106 106 106c12 11 12 30 0 42-12 12-30 12-42 0l-106-106-106 106c-12 12-31 12-42 0-12-12-12-31 0-42l106-106z m387 530h-313c0 69-56 125-125 125h-250c-69 0-125-56-125-125v-187-63-500c0-69 56-125 125-125h688c69 0 125 56 125 125v438 62 63 62c0 69-56 125-125 125z m62-312v-108-330c0-35-28-62-62-62h-688c-34 0-62 27-62 62v392 46 62h812v-62z m0 125h-812v62 63 62c0 35 28 63 62 63h250c35 0 63-28 63-63v-62h62 250 63c34 0 62-28 62-63v-62z" horiz-adv-x="1000" />
<glyph glyph-name="doc-folder-minus" unicode="&#xe877;" d="m937 725h-500v63c0 34-28 62-62 62h-313c-34 0-62-28-62-62v-125-63-62-625c0-35 28-63 62-63h875c35 0 63 28 63 63v625 125c0 34-28 62-63 62z m0-219v-31-531c0-17-14-31-31-31h-812c-18 0-32 14-32 31v531 31 32h32 812 31v-32z m-31 94h-62-782v63 31 31 31c0 18 14 32 32 32h250c17 0 31-14 31-32v-31-31-31h469 62c17 0 31-14 31-32 0-17-14-31-31-31z m-187-375h-438c-17 0-31-14-31-31 0-17 14-31 31-31h438c17 0 31 14 31 31 0 17-14 31-31 31z" horiz-adv-x="1000" />
<glyph glyph-name="doc-folder-minus-a" unicode="&#xe878;" d="m375 163h250c17 0 31 14 31 31 0 17-14 31-31 31h-250c-17 0-31-14-31-31 0-17 14-31 31-31z m469 562h-313c0 69-56 125-125 125h-250c-69 0-125-56-125-125v-187-63-500c0-69 56-125 125-125h688c69 0 125 56 125 125v438 62 63 62c0 69-56 125-125 125z m62-312v-108-330c0-35-28-62-62-62h-688c-34 0-62 27-62 62v392 46 62h812v-62z m0 125h-812v62 63 62c0 35 28 63 62 63h250c35 0 63-28 63-63v-62h62 250 63c34 0 62-28 62-63v-62z" horiz-adv-x="1000" />
<glyph glyph-name="doc-folder-plus" unicode="&#xe879;" d="m656 225h-156v156c0 18-14 32-31 32-18 0-32-14-32-32v-156h-156c-17 0-31-14-31-31 0-17 14-31 31-31h156v-157c0-17 14-31 32-31 17 0 31 14 31 31v157h156c17 0 31 14 31 31 0 17-14 31-31 31z m281 500h-500v63c0 34-28 62-62 62h-313c-34 0-62-28-62-62v-125-63-62-625c0-35 28-63 62-63h875c35 0 63 28 63 63v625 125c0 34-28 62-63 62z m0-219v-31-531c0-18-14-31-31-31h-812c-18 0-32 13-32 31v531 31 32h32 812 31v-32z m-31 94h-62-782v63 31 31 31c0 18 14 32 32 32h250c17 0 31-14 31-32v-31-31-31h469 62c17 0 31-14 31-32s-14-31-31-31z" horiz-adv-x="1000" />
<glyph glyph-name="doc-folder-plus-a" unicode="&#xe87a;" d="m844 725h-313c0 69-56 125-125 125h-250c-69 0-125-56-125-125v-187-63-500c0-69 56-125 125-125h688c69 0 125 56 125 125v438 62 63 62c0 69-56 125-125 125z m62-312v-108-330c0-35-28-62-62-62h-688c-34 0-62 27-62 62v392 46 62h812v-62z m0 125h-812v62 63 62c0 35 28 63 62 63h250c35 0 63-28 63-63v-62h62 250 63c34 0 62-28 62-63v-62z m-531-375h94v-94c0-17 14-31 31-31 17 0 31 14 31 31v94h94c17 0 31 14 31 31 0 17-14 31-31 31h-94v94c0 17-14 31-31 31-17 0-31-14-31-31v-94h-94c-17 0-31-14-31-31 0-17 14-31 31-31z" horiz-adv-x="1000" />
<glyph glyph-name="doc-folder-s" unicode="&#xe87b;" d="m999 544c-1 1-1 2-1 3-2 7-7 12-13 16 0 1 0 1-1 2 0 0-1 0-1 0-2 1-5 2-7 2-2 1-3 1-5 1-1 0-1 1-2 1h-94v187c0 35-28 63-63 63h-750c-34 0-62-28-62-63v-812c0-7 2-51 16-59 9-5 40-4 46-4h688l246 642c2 4 4 9 4 15 0 2-1 4-1 6z m-937 181c0 17 14 31 32 31h687c17 0 31-14 31-31v-156h-531c-2 0-3-1-5-1-1 0-3-1-4-1-3-1-5-2-7-4-1 0-2-1-3-2-3-1-4-4-6-6-1-1-1-1-2-2l0-1c-1-2-2-3-2-5l-190-474v652z m636-781h-604c-6 0-11 2-15 4l223 558h621l-225-562z" horiz-adv-x="1000" />
<glyph glyph-name="doc-folder-sync" unicode="&#xe87c;" d="m261 295c0-2-2-5-2-7h22 43 82c17 0 31 14 31 31s-14 31-31 31h-43c34 38 82 63 137 63 93 0 169-68 184-157h63c-16 123-120 219-247 219-76 0-142-35-188-89v58c0 17-14 31-31 31-17 0-31-14-31-31v-125c0-5 1-9 3-13 0 0 0-1 0-1 2-4 5-7 8-10z m676 430h-500v63c0 34-28 62-62 62h-313c-34 0-62-28-62-62v-125-63-62-625c0-35 28-63 62-63h875c35 0 63 28 63 63v625 125c0 34-28 62-63 62z m0-219v-31-531c0-17-14-31-31-31h-812c-18 0-32 14-32 31v531 31 32h32 812 31v-32z m-31 94h-62-782v63 31 31 31c0 18 14 32 32 32h250c17 0 31-14 31-32v-31-31-31h469 62c17 0 31-14 31-32 0-17-14-31-31-31z m-160-455c-2 4-4 7-8 10 1 3 2 5 3 8h-22-43-82c-18 0-32-14-32-32s14-31 32-31h43c-35-38-82-62-137-62-93 0-169 67-184 156h-63c16-123 120-219 247-219 76 0 142 36 187 89v-58c0-17 15-31 32-31s31 14 31 31v125c0 5-1 9-3 14 0 0 0 0-1 0z" horiz-adv-x="1000" />
<glyph glyph-name="doc-folder-tick" unicode="&#xe87d;" d="m937 725h-500v63c0 34-27 62-62 62h-313c-34 0-62-28-62-62v-125-63-62-625c0-35 28-63 62-63h875c35 0 63 28 63 63v625 125c0 34-28 62-63 62z m0-219v-31-531c0-17-14-31-31-31h-812c-18 0-32 14-32 31v531 31 32h32 812 31v-32z m-31 94h-62-782v63 31 31 31c0 18 14 32 32 32h250c17 0 31-14 31-32v-31-31-31h469 62c17 0 31-14 31-32 0-17-14-31-31-31z m-148-196l-293-293-164 136c-11 12-30 12-42 0s-12-30 0-42l187-156c0 0 0-1 0-2 6-6 15-9 23-9 8 0 16 2 22 9 1 0 0 1 1 1l311 311c12 12 12 33 0 45-13 12-33 12-45 0z" horiz-adv-x="1000" />
<glyph glyph-name="doc-list" unicode="&#xe87e;" d="m156 163h-62c-18 0-32-14-32-32v-62c0-17 14-31 32-31h62c17 0 31 14 31 31v62c0 18-14 32-31 32z m0 250h-62c-18 0-32-14-32-32v-62c0-17 14-31 32-31h62c17 0 31 14 31 31v62c0 18-14 32-31 32z m188 187h562c17 0 31 14 31 31 0 18-14 32-31 32h-562c-18 0-32-14-32-32 0-17 14-31 32-31z m-188 63h-62c-18 0-32-14-32-32v-62c0-17 14-31 32-31h62c17 0 31 14 31 31v62c0 18-14 32-31 32z m750-500h-562c-18 0-32-14-32-32 0-17 14-31 32-31h562c17 0 31 14 31 31 0 18-14 32-31 32z m0 250h-562c-18 0-32-14-32-32 0-17 14-31 32-31h562c17 0 31 14 31 31 0 18-14 32-31 32z" horiz-adv-x="1000" />
<glyph glyph-name="doc-news" unicode="&#xe87f;" d="m219 225h312c17 0 31 14 31 31s-14 32-31 32h-312c-18 0-32-14-32-32s14-31 32-31z m0 188h312c17 0 31 14 31 31s-14 31-31 31h-312c-18 0-32-14-32-31s14-31 32-31z m0-375h312c17 0 31 14 31 31s-14 31-31 31h-312c-18 0-32-14-32-31s14-31 32-31z m656 812h-750c-69 0-125-56-125-125v-750c0-69 56-125 125-125h750c69 0 125 56 125 125v750c0 69-56 125-125 125z m-188-937h-562c-35 0-63 27-63 62v625h625v-687z m250 62c0-35-27-62-62-62h-125v687h187v-625z m0 688h-875v62c0 35 28 63 63 63h750c35 0 62-28 62-63v-62z" horiz-adv-x="1000" />
<glyph glyph-name="doc-newspaper" unicode="&#xe880;" d="m312 350h563v63h-563v-63z m0-187h563v62h-563v-62z m0 375h563v62h-563v-62z m594 312h-625c-52 0-94-42-94-94v-156h-93c-52 0-94-42-94-94v-562c0-52 42-94 94-94h812c52 0 94 42 94 94v812c0 52-42 94-94 94z m31-906c0-17-14-31-31-31h-812c-18 0-32 14-32 31v562c0 18 14 32 32 32h93v-563h63v781c0 18 14 32 31 32h625c17 0 31-14 31-32v-812z" horiz-adv-x="1000" />
<glyph glyph-name="doc-newspaper-a" unicode="&#xe881;" d="m312 225h563v63h-563v-63z m0-187h563v62h-563v-62z m500 625h-437c-35 0-63-28-63-62v-125c0-35 28-63 63-63h437c35 0 63 28 63 63v125c0 34-28 62-63 62z m0-156c0-17-14-31-31-31h-375c-17 0-31 14-31 31v63c0 17 14 31 31 31h375c17 0 31-14 31-31v-63z m94 343h-625c-52 0-94-43-94-97v-152h-93c-52 0-94-42-94-94v-563c0-52 42-94 94-94h812c52 0 94 43 94 97v806c0 54-42 97-94 97z m31-903c0-18-14-32-31-32l-812-2c-18 0-32 14-32 31v564c0 18 14 32 32 32h93v-559h63v559 21 194c0 18 14 33 31 33h625c17 0 31-15 31-33v-808z" horiz-adv-x="1000" />
<glyph glyph-name="doc-newspaper-b" unicode="&#xe882;" d="m875 38h-500v-63h500v63z m0 687h-500v-62h500v62z m-625 125v-437h-250v-438c0-69 56-125 125-125h31 63 62 594c69 0 125 56 125 125v875l-750 0z m0-813v-62-63h-125v0c-35 0-63 29-63 63v375l188 0v-313z m687-62c0-34-28-63-62-63h-563v876l625 0v-813z m-62 625h-500v-375h500v375z m-63-313h-374v251h374v-251z m63-124h-500v-63h500v63z" horiz-adv-x="1000" />
<glyph glyph-name="doc-notebook" unicode="&#xe883;" d="m187 350h438c35 0 62 28 62 63v187c0 35-27 63-62 63h-438c-34 0-62-28-62-63v-187c0-35 28-63 62-63z m0 219c0 17 14 31 32 31h375c17 0 31-14 31-31v-125c0-17-14-31-31-31h-375c-18 0-32 14-32 31v125z m-31-406h500c17 0 31 14 31 31 0 17-14 31-31 31h-500c-17 0-31-14-31-31 0-17 14-31 31-31z m781 687h-875c-34 0-62-28-62-62v-875c0-35 28-63 62-63h875c35 0 63 28 63 63v875c0 34-28 62-63 62z m-187-187v-125-125-125-125-125-125h-656c-18 0-32 14-32 31v812c0 18 14 32 32 32h656v-125z m187-719c0-17-14-31-31-31h-94v125h63v125h-63v125h63v125h-63v125h63v125h-63v125h94c17 0 31-14 31-32v-812z m-781 94h500c17 0 31 14 31 31 0 17-14 31-31 31h-500c-17 0-31-14-31-31 0-17 14-31 31-31z" horiz-adv-x="1000" />
<glyph glyph-name="doc-notebook-a" unicode="&#xe884;" d="m812 663h-437c-35 0-63-28-63-63v-187c0-35 28-63 63-63h437c35 0 63 28 63 63v187c0 35-28 63-63 63z m0-219c0-17-14-31-31-31h-375c-17 0-31 14-31 31v125c0 17 14 31 31 31h375c17 0 31-14 31-31v-125z m32-344h-500c-18 0-32-14-32-31s14-31 32-31h500c17 0 31 14 31 31s-14 31-31 31z m0 125h-500c-18 0-32-14-32-31s14-31 32-31h500c17 0 31 14 31 31s-14 31-31 31z m93 625h-875c-34 0-62-28-62-62v-875c0-35 28-63 62-63h875c35 0 63 28 63 63v875c0 34-28 62-63 62z m-750-187h-62v-125h62v-125h-62v-125h62v-125h-62v-125h62v-125h-93c-18 0-32 14-32 31v812c0 18 14 32 32 32h93v-125z m750-719c0-17-14-31-31-31h-656v125 125 125 125 125 125 125h656c17 0 31-14 31-32v-812z" horiz-adv-x="1000" />
<glyph glyph-name="doc-note-pen" unicode="&#xe885;" d="m844 538h-375c-18 0-32-14-32-32 0-17 14-31 32-31h375c17 0 31 14 31 31 0 18-14 32-31 32z m93 250h-62v62h-63v-62h-125v62h-62v-62h-125v62h-63v-62h-62c-35 0-63-28-63-63v-812c0-35 28-63 63-63h562c35 0 63 28 63 63v812c0 35-28 63-63 63z m0-844c0-17-14-31-31-31h-500c-17 0-31 14-31 31v750c0 17 14 31 31 31h31 63 125 62 125 63 31c17 0 31-14 31-31v-750z m-750 906h-125c-34 0-62-28-62-62v-375-63-437c0-35 28-63 62-63h125c35 0 63 28 63 63v437 63 375c0 34-28 62-63 62z m0-906c0-17-14-31-31-31h-62c-18 0-32 14-32 31v406h125v-406z m0 469h-125v343c0 18 14 32 32 32h62c17 0 31-14 31-32v-343z m657-63h-375c-18 0-32-14-32-31 0-17 14-31 32-31h375c17 0 31 14 31 31 0 17-14 31-31 31z m0-187h-375c-18 0-32-14-32-32s14-31 32-31h375c17 0 31 14 31 31s-14 32-31 32z" horiz-adv-x="1000" />
<glyph glyph-name="doc-paper-line" unicode="&#xe886;" d="m719 100h-438c-17 0-31-14-31-31 0-17 14-31 31-31h438c17 0 31 14 31 31 0 17-14 31-31 31z m-438 500h250c17 0 31 14 31 31 0 18-14 32-31 32h-250c-17 0-31-14-31-32 0-17 14-31 31-31z m438-312h-438c-17 0-31-14-31-32s14-31 31-31h438c17 0 31 14 31 31s-14 32-31 32z m0 187h-438c-17 0-31-14-31-31 0-17 14-31 31-31h438c17 0 31 14 31 31 0 17-14 31-31 31z m93 375h-625c-34 0-62-28-62-62v-875c0-35 28-63 62-63h625c35 0 63 28 63 63v875c0 34-28 62-63 62z m0-906c0-17-14-31-31-31h-562c-18 0-32 14-32 31v812c0 18 14 32 32 32h562c17 0 31-14 31-32v-812z" horiz-adv-x="1000" />
<glyph glyph-name="doc-papers" unicode="&#xe887;" d="m125 694c-35 0-63-28-63-63v-687c0-35 28-63 63-63h687c35 0 63 28 63 63h-750v750z m219-125h250c17 0 31 14 31 31 0 17-14 31-31 31h-250c-18 0-32-14-32-31 0-17 14-31 32-31z m437-125h-437c-18 0-32-14-32-31 0-18 14-32 32-32h437c17 0 31 14 31 32 0 17-14 31-31 31z m0-188h-437c-18 0-32-14-32-31 0-17 14-31 32-31h437c17 0 31 14 31 31 0 17-14 31-31 31z m94 563h-625c-35 0-63-28-63-63v-687c0-35 28-63 63-63h625c35 0 62 28 62 63v687c0 35-27 63-62 63z m0-719c0-17-14-31-31-31h-563c-17 0-31 14-31 31v625c0 17 14 31 31 31h563c17 0 31-14 31-31v-625z" horiz-adv-x="1000" />
<glyph glyph-name="doc-paper-stack" unicode="&#xe888;" d="m1000 538l-500 250-500-250 500-250 500 250z m-500 187l375-180-375-195-375 195 375 180z m0-750l-361 188h-139l500-250 500 250h-140l-360-188z m0 188l-361 187h-139l500-250 500 250h-140l-360-187z" horiz-adv-x="1000" />
<glyph glyph-name="doc-photo-stack" unicode="&#xe889;" d="m63-25v688h-63v-688c0-69 60-125 133-125h741v63h-744c-37 0-67 27-67 62z m874 875h-749c-35 0-63-28-63-62v-750c0-35 28-63 63-63h749c35 0 62 28 62 63v750c0 34-27 62-62 62z m0-781c0-17-14-31-31-31h-687c-17 0-31 14-31 31v687c0 18 14 32 31 32h687c17 0 31-14 31-32v-687z m-94 656h-562c-17 0-31-14-31-31v-500c0-17 14-31 31-31h562c18 0 32 14 32 31v500c0 17-14 31-32 31z m-31-469c0-17-14-31-31-31h-437c-17 0-31 14-31 31v375c0 18 14 32 31 32h437c17 0 31-14 31-32v-375z" horiz-adv-x="1000" />
<glyph glyph-name="doc-pie" unicode="&#xe88a;" d="m469 850c-32 0-64-3-94-9v-53-10-59c-212-31-375-211-375-431 0-242 196-438 437-438 120 0 228 50 306 128l23-16 9 3c-1-1-2-3-4-4l54-36c107 97 175 238 175 394 0 293-238 531-531 531z m-32-937c-207 0-375 167-375 375 0 185 136 338 313 368v-420l-1-1 1 0v-10h14l303-211c-67-62-156-101-255-101z m380 93l-380 264v393 62 59c11 1 21 4 32 4 259 0 468-210 468-469 0-121-45-230-120-313z" horiz-adv-x="1000" />
<glyph glyph-name="doc-pie-a" unicode="&#xe88b;" d="m562 225v-312-63l68 0c332 48 370 313 370 313v62h-2-436z m63-313h0v1 250h311c-10-43-65-213-311-251z m-125 938c-276 0-500-224-500-500 0-127 47-243 125-331l0 0 43-44 2 2c74-65 165-110 267-123v-4h63v0 438h431 65 4v62c0 276-224 500-500 500z m-63-931c-84 12-160 49-222 102l222 223v-325z m63 431h-28l-1-3-2 3-298-287c-68 77-109 177-109 287 0 242 196 438 438 438s437-196 437-438h-437z" horiz-adv-x="1000" />
<glyph glyph-name="doc-pie-b" unicode="&#xe88c;" d="m1000 303c0 285-231 547-516 547-48 0-47 1-108 0h-1v-63-62c-196-43-375-228-375-438v-62h6c31-212 211-375 431-375 120 0 228 49 307 127l54-26 38-24c13 11 25 24 36 37l3 1-1 1c78 90 126 208 126 337z m-625 359v-375h-313c0 175 151 334 313 375z m62-750c-185 0-338 136-368 313h306v0l315-213c-66-62-155-100-253-100z m384 88l-36 23-53 34-295 215v515c13 0 24 0 47 0 251 0 453-234 453-484 0-117-44-223-116-303z" horiz-adv-x="1000" />
<glyph glyph-name="doc-pin" unicode="&#xe88d;" d="m969 328h-89l-402 402v89l-447-447h89l402-402v-89l179 179 268-179-179 268 179 179z m-402-313l-89 90 268 267-45 45-268-268-268 268 268 268 402-402-268-268z" horiz-adv-x="1000" />
<glyph glyph-name="doc-pin-a" unicode="&#xe88e;" d="m969 328h-89l-402 402v89l-447-447h89l402-402v-89l224 223-45-44 268-179-179 268 179 179z m-402-313l-402 402 268 268 402-402-268-268z" horiz-adv-x="1000" />
<glyph glyph-name="doc-print" unicode="&#xe88f;" d="m375 538c0 0 0 0 0 0h-63v-63c0 0 0 0 0 0l0 0v-62h125v125h-62c0 0 0 0 0 0z m-188 0c0 0 0 0 0 0h-62v-63 0-62h125v125h-62c0 0 0 0-1 0z m782 125h-219v187h-500v-187h-219c-17 0-31-14-31-32v-562c0-17 14-31 31-31h219v-188h500v188h219c17 0 31 14 31 31v562c0 18-14 32-31 32z m-657 125h375v-125h-375v125z m375-876h-375v313h375v-313z m250 219c0-17-14-31-31-31h-156v188h-500v-188h-156c-18 0-32 14-32 31v438c0 17 14 31 32 31h812c17 0 31-14 31-31v-438z" horiz-adv-x="1000" />
<glyph glyph-name="doc-print-a" unicode="&#xe890;" d="m937 288h-125v500c0 34-27 62-62 62h-500c-35 0-63-28-63-62v-500h-125c-34 0-62-28-62-63v-187c0-35 28-63 62-63h125v-94c0-17 14-31 32-31h562c17 0 31 14 31 31v94h125c35 0 63 28 63 63v187c0 35-28 63-63 63z m-687 468c0 18 14 32 31 32h438c17 0 31-14 31-32v-437c0-17-14-31-31-31h-438c-17 0-31 14-31 31v437z m500-843h-500v187h500v-187z m187 156c0-17-14-31-31-31h-94v93c0 18-14 32-31 32h-562c-18 0-32-14-32-32v-93h-93c-18 0-32 14-32 31v125c0 17 14 31 32 31h812c17 0 31-14 31-31v-125z" horiz-adv-x="1000" />
<glyph glyph-name="doc-profile" unicode="&#xe891;" d="m656 444h188c17 0 31 14 31 31s-14 31-31 31h-188c-17 0-31-14-31-31s14-31 31-31z m0-125h188c17 0 31 14 31 31 0 17-14 31-31 31h-188c-17 0-31-14-31-31 0-17 14-31 31-31z m0 250h188c17 0 31 14 31 31 0 17-14 31-31 31h-188c-17 0-31-14-31-31 0-17 14-31 31-31z m156 250h-625c-103 0-187-84-187-188v-406-101-173c0-39 31-70 69-70h25 149 663c17 0 31 14 31 32s-14 31-31 31h-595c0 2 1 4 1 7v24c0-17-14-31-31-31h-187c-18 0-31 14-32 31v0 31 49 45h44c0 0 0 0 0 0h-44v94 437c0 69 57 125 125 125h625c69 0 125-56 125-125v-437c0-69-56-125-125-125h-625c-22 0-44 6-62 17v-80h62c0 0 0 0 0 0h95c17 0 30-14 30-31v31h500c104 0 188 84 188 188v437c0 104-84 188-188 188z m-156-625h188c17 0 31 14 31 31 0 17-14 31-31 31h-188c-17 0-31-14-31-31 0-17 14-31 31-31z m-312 0c121 0 218 98 218 219 0 120-97 218-218 218-121 0-219-98-219-218 0-121 98-219 219-219z m0 375c86 0 156-70 156-156s-70-157-156-157c-87 0-157 70-157 157s70 156 157 156z" horiz-adv-x="1000" />
<glyph glyph-name="doc-profile-a" unicode="&#xe892;" d="m844 319h-188c-17 0-31-14-31-31 0-18 14-32 31-32h188c17 0 31 14 31 32 0 17-14 31-31 31z m0-125h-188c-17 0-31-14-31-31 0-18 14-32 31-32h188c17 0 31 14 31 32 0 17-14 31-31 31z m-500 375c-121 0-219-98-219-219 0-121 98-219 219-219 121 0 218 98 218 219 0 121-97 219-218 219z m0-375c-87 0-157 70-157 156 0 86 70 156 157 156 86 0 156-70 156-156 0-86-70-156-156-156z m468 562h-625c-103 0-187-84-187-187v-438c0-103 84-187 187-187h625c104 0 188 84 188 187v438c0 103-84 187-188 187z m125-625c0-69-56-125-125-125h-625c-68 0-125 56-125 125v438c0 69 57 125 125 125h625c69 0 125-56 125-125v-438z m-93 438h-188c-17 0-31-14-31-31 0-18 14-32 31-32h188c17 0 31 14 31 32 0 17-14 31-31 31z m0-125h-188c-17 0-31-14-31-31s14-32 31-32h188c17 0 31 14 31 32s-14 31-31 31z" horiz-adv-x="1000" />
<glyph glyph-name="doc-upload" unicode="&#xe893;" d="m208 453l261 286v-670c0-17 14-31 31-31 17 0 31 14 31 31v670l261-286c12-12 31-12 43 0 12 12 12 31 0 43l-311 342c-1 1-1 1-1 2 0 0 0 1-1 1 0 1-1 0-1 1-5 4-12 7-20 8 0 0 0 0-1 0 0 0 0 0 0 0 0 0 0 0 0 0-1 0-2 0-2 0-6-1-12-3-16-7-1-1-3-1-4-2-1-1-1-2-2-3 0-1-1-1-1-2l-310-340c-12-12-12-31 0-43 12-12 31-12 43 0z m667-540h-750c-17 0-31-14-31-32 0-17 14-31 31-31h750c17 0 31 14 31 31 0 18-14 32-31 32z" horiz-adv-x="1000" />
<glyph glyph-name="doc-wboard-line" unicode="&#xe894;" d="m250 100h312v63h-312v-63z m0 125h500v63h-500v-63z m0 125h500v63h-500v-63z m469 375v63h-94c0 34-28 62-63 62h-125c-34 0-62-28-62-62h-94v-63h-219v-875h875v875h-218z m-375 0h93v31c0 18 14 32 32 32h62c17 0 31-14 31-32v-31h94v-125h-125-62-125v125z m531-813h-750v751h156v-125h438v125h156v-751z" horiz-adv-x="1000" />
<glyph glyph-name="doc-wboard-tick" unicode="&#xe895;" d="m719 725v63h-94c0 34-28 62-63 62h-125c-34 0-62-28-62-62h-94v-63h-219v-875h875v875h-218z m-375 0h93v31c0 18 14 32 32 32h62c17 0 31-14 31-32v-31h94v-125h-125-62-125v125z m531-813h-750v751h156v-125h438v125h156v-751z m-180 492l-230-289-101 101c-12 12-31 12-43 0s-11-31 0-42l124-124c1-1 1-2 1-3 1 0 2 0 3 0l0-1c11-11 30-11 42 0 0 1 0 1 0 1 0 0 1 0 1 0l248 312c13 12 13 32 0 45-12 12-33 12-45 0z" horiz-adv-x="1000" />
<glyph glyph-name="media-glass" unicode="&#xe896;" d="m1000 256l0 1-188 437h-187v-63h139l145-312h-818l144 312h140v63h-188v0l-187-437 0-1h3c-1-10-3-20-3-31 0-121 98-219 219-219 87 0 161 52 197 125h168c35-73 110-125 197-125 121 0 219 98 219 219 0 11-2 21-3 31l3 0 0 0z m-781-187c-87 0-157 70-157 156 0 11 2 21 4 31h306c2-10 3-20 3-31 0-86-70-156-156-156z m347 125h-132c2 10 3 20 3 31 0 11-1 21-3 31h132c-2-10-4-20-4-31 0-11 2-21 4-31z m215-125c-86 0-156 70-156 156 0 11 1 21 3 31h306c2-10 3-20 3-31 0-86-69-156-156-156z" horiz-adv-x="1000" />
<glyph glyph-name="media-glass-a" unicode="&#xe897;" d="m1000 319l-188 437v0h-187v-62h139l145-313h-493-73-249-3l144 313h140v62h-188v0l-187-437v0h4c-2-11-4-21-4-31v-125c0-121 98-219 219-219 87 0 161 51 197 125h168c36-74 110-125 197-125 121 0 219 98 219 219v125c0 10-2 20-4 31h4v0z m-625-156c0-87-70-157-156-157-87 0-157 70-157 157v125c0 11 4 21 6 31h302c2-10 5-20 5-31v-125z m191-32h-132c2 11 3 21 3 32v125c0 10-2 20-3 31h132c-1-11-4-21-4-31v-125c0-11 2-21 4-32z m371 32c0-87-69-157-156-157s-156 70-156 157v125c0 11 3 21 5 31h302c2-10 5-20 5-31v-125z" horiz-adv-x="1000" />
<glyph glyph-name="media-image" unicode="&#xe898;" d="m281 663c-52 0-94-42-94-94 0-52 42-94 94-94 52 0 94 42 94 94 0 52-42 94-94 94z m0-125c-17 0-31 14-31 31s14 31 31 31c17 0 31-14 31-31s-14-31-31-31z m656 312h-875c-34 0-62-28-62-62v-875c0-35 28-63 62-63h875c35 0 63 28 63 63v125 62 688c0 34-28 62-63 62z m0-906c0-17-14-31-31-31h-812c-18 0-32 14-32 31v94h875v-94z m0 156h-715l190 238 220-165c7-7 16-10 24-10 9 0 18 3 24 10l257 413v-486z m0 606l-289-465-217 163c-7 6-16 9-25 8-9 1-18-1-25-8l-242-304h-77v656c0 18 14 32 32 32h812c17 0 31-14 31-32v-50z" horiz-adv-x="1000" />
<glyph glyph-name="media-image-a" unicode="&#xe899;" d="m281 475c52 0 94 42 94 94 0 52-42 93-94 93s-94-41-94-93c0-52 42-94 94-94z m0 125c17 0 31-14 31-31 0-17-14-32-31-32-17 0-31 15-31 32 0 17 14 31 31 31z m656 250h-875c-34 0-62-28-62-62v-875c0-35 28-63 62-63h875c35 0 63 28 63 63v875c0 34-28 62-63 62z m0-906c0-17-14-31-31-31h-812c-18 0-32 14-32 31v812c0 18 14 32 32 32h812c17 0 31-14 31-32v-812z m-118 521l-261-309-189 143c-7 7-16 10-25 9-9 1-18-2-25-9l-185-264c-13-14-13-36 0-49 13-14 33-14 46 0l170 243 188-143c7-7 16-10 24-10 9 0 18 3 24 10l279 330c13 14 13 36 0 49-13 14-33 14-46 0z" horiz-adv-x="1000" />
<glyph glyph-name="media-image-b" unicode="&#xe89a;" d="m694 404l-169-255-188 161c-6 7-15 9-25 9-9 0-18-2-25-9l-153-247c-13-13-13-34 0-47s33-12 46 0l139 224 188-161c7-7 16-10 24-9 9-1 18 2 24 9l185 278c13 13 13 34 0 47-13 12-33 12-46 0z m118 321h-750c-34 0-62-28-62-62v-750c0-35 28-63 62-63h750c35 0 63 28 63 63v750c0 34-28 62-63 62z m0-781c0-17-14-31-31-31h-687c-18 0-32 14-32 31v687c0 18 14 32 32 32h687c17 0 31-14 31-32v-687z m-562 625c0 52-42 93-94 93-52 0-93-41-93-93 0-52 41-94 93-94 52 0 94 42 94 94z m-125 0c0 17 14 31 31 31 18 0 32-14 32-31s-14-32-32-32c-17 0-31 14-31 32z m844 281h-813c-17 0-31-14-31-31 0-17 14-31 31-31h781v-782c0-17 15-31 32-31s31 14 31 31v813c0 17-14 31-31 31z" horiz-adv-x="1000" />
<glyph glyph-name="media-image-c" unicode="&#xe89b;" d="m906 850h-812c-35 0-63-28-63-62v-875c0-35 28-63 63-63h812c35 0 63 28 63 63v875c0 34-28 62-63 62z m0-906c0-17-14-31-31-31h-750c-17 0-31 14-31 31v812c0 18 14 32 31 32h750c17 0 31-14 31-32v-812z m-125 781h-562c-35 0-63-28-63-62v-563c0-34 28-62 63-62h562c35 0 63 28 63 62v563c0 34-28 62-63 62z m0-594c0-17-14-31-31-31h-500c-17 0-31 14-31 31v1c8 0 17 3 24 9l132 159 103-128c12-13 32-13 44 0 0 0 0 0 0 0 1 0 1 0 2 1l135 218 95-120c6-9 16-13 27-13v-127z m0 205l-98 124c-1 2-3 2-5 4 0 0 0 1-1 2-1 1-3 1-5 2-4 3-8 5-13 6-5 0-9-1-14-2-2-1-3 0-4-1-1 0-2-1-3-2-2-1-5-1-7-3l-135-217-99 123c-6 7-14 9-23 9-8 1-17-2-24-9l-131-158v417c0 18 14 32 31 32h500c17 0 31-14 31-32v-295z" horiz-adv-x="1000" />
<glyph glyph-name="media-image-d" unicode="&#xe89c;" d="m938 850h-875c-35 0-63-28-63-62v-715c0-1 0-3 0-5v-155c0-35 28-63 63-63h875c34 0 62 28 62 63v875c0 34-28 62-62 62z m-844-937c-17 0-31 14-31 31v105l274 224 311-361h-554z m844 31c0-17-14-31-32-31h-169l-233 268 274 224 159-171c0 0 0 0 1 0v-290z m0 385l-128 138c-7 6-18 8-28 8-9 0-19-2-26-8l-292-239-97 112c-7 8-17 11-27 10-2 0-4-1-7-1-1-1-2-1-3-2-5-1-12-2-16-6l-251-204v619c0 18 14 32 31 32h812c18 0 32-14 32-32v-427z m-688 396c-69 0-125-56-125-125 0-69 56-125 125-125 69 0 125 56 125 125 0 69-56 125-125 125z m0-188c-34 0-62 28-62 63 0 35 28 62 62 62s63-27 63-62c0-35-28-63-63-63z" horiz-adv-x="1000" />
<glyph glyph-name="media-negative" unicode="&#xe89d;" d="m875 631h-63v-62h63v62z m-125 0h-63v-62h63v62z m-188-562h63v62h-63v-62z m63 562h-63v-62h63v62z m62-562h63v62h-63v-62z m250 687h-437c-2 0-4-1-6-1-13 37-47 64-88 64h-312c-52 0-94-42-94-94v-750c0-52 42-94 94-94h312c41 0 75 27 88 63h6v94 31 594c0 17 14 31 31 31h375c17 0 31-14 31-31v-625c0-18-14-32-31-32h-281v-62h312c35 0 63 28 63 62v688c0 34-28 62-63 62z m-500-781c0-17-14-31-31-31h-312c-18 0-32 14-32 31v31h375v-31z m0 94h-375v562h375v-562z m0 625h-375v31c0 17 14 31 32 31h312c17 0 31-14 31-31v-31z m375-625h63v62h-63v-62z" horiz-adv-x="1000" />
<glyph glyph-name="media-negative-a" unicode="&#xe89e;" d="m625 631h-63v-62h63v62z m-63-562h63v62h-63v-62z m313 562h-63v-62h63v62z m-188-562h63v62h-63v-62z m63 562h-63v-62h63v62z m187 125h-437c-2 0-4-1-6-1-13 37-47 64-88 64h-312c-52 0-94-42-94-94v-750c0-52 42-94 94-94h312c41 0 75 27 88 64 2 0 4-1 6-1v94 31 594c0 17 14 31 31 31h375c17 0 31-14 31-31v-625c0-18-14-32-31-32h-281v-62h312c35 0 63 28 63 62v688c0 34-28 62-63 62z m-500-62v-688-31c0-17-14-31-31-31h-312c-18 0-32 14-32 31v750c0 17 14 31 32 31h312c17 0 31-14 31-31v-31z m375-625h63v62h-63v-62z" horiz-adv-x="1000" />
<glyph glyph-name="media-video" unicode="&#xe89f;" d="m969 600l-219-146v84c0 69-56 125-125 125h-500c-69 0-125-56-125-125v-375c0-70 56-125 125-125h500c69 0 125 55 125 125v83l219-146c17 0 31 14 31 31v438c0 17-14 31-31 31z m-282-437c0-35-27-63-62-63h-500c-35 0-63 28-63 63v375c0 34 28 62 63 62h500c35 0 62-28 62-62v-375z m250 33l-187 125v58l187 125v-308z" horiz-adv-x="1000" />
<glyph glyph-name="media-video-a" unicode="&#xe8a0;" d="m750 496v42c0 69-56 125-125 125h-500c-69 0-125-56-125-125v-375c0-69 56-125 125-125h500c69 0 125 56 125 125v41l250-166v625l-250-167z m187-333l-250 156v-156c0-35-27-63-62-63h-500c-35 0-63 28-63 63v375c0 34 28 62 63 62h500c35 0 62-28 62-62v-157l250 157v-375z" horiz-adv-x="1000" />
<glyph glyph-name="media-video-clip" unicode="&#xe8a1;" d="m937 850h-125-62-500-63-125c-34 0-62-28-62-62v-125-63-125-62-125-63-125-62-125c0-35 28-63 62-63h125 63 500 62 125c35 0 63 28 63 63v125 62 125 63 125 62 125 63 125c0 34-28 62-63 62z m-750-937h-93c-18 0-32 14-32 31v94h125v-125z m0 187h-125v125h125v-125z m0 250v-62h-125v125h125v-63z m0 125h-125v125h125v-125z m0 188h-125v93c0 18 14 32 32 32h93v-125z m563-438v-125-62-125h-500v125 62 125 63h500v-63z m0 438v-63-125-62-63h-500v63 62 125 63 125h500v-125z m187-719c0-17-14-31-31-31h-94v125h125v-94z m0 156h-125v125h125v-125z m0 188h-125v62 63h125v-125z m0 187h-125v125h125v-125z m0 188h-125v125h94c17 0 31-14 31-32v-93z" horiz-adv-x="1000" />
<glyph glyph-name="media-video-r" unicode="&#xe8a2;" d="m969 475l-157-104v104c0 35-27 63-62 63h-82l-238 238c-1 2-3 3-4 4l-3 3c-1 1-3 1-4 2-1 0-2 0-3 1-3 0-5 1-8 1-1 0-1 1-2 1h-312c-18 0-32-14-32-32s14-31 32-31h312l250-250h63c17 0 31-14 31-31v-438c0-17-14-31-31-31h-625c-18 0-32 14-32 31v438c0 17 14 31 32 31h218v63h-250c-34 0-62-28-62-63v-500c0-34 28-62 62-62h688c35 0 62 28 62 62v104l157-104c17 0 31 14 31 31v438c0 17-14 31-31 31z m-32-404l-125 83v142l125 83v-308z m-750 60c0-17 14-31 32-31h375c17 0 31 14 31 31 0 18-14 32-31 32h-375c-18 0-32-14-32-32z" horiz-adv-x="1000" />
<glyph glyph-name="business-tie" unicode="&#xe8a3;" d="m687 850h-375l63-312-63-125v-344c0 0 18-41 33-64 61-92 155-155 155-155s94 63 155 155c15 23 32 64 32 64v344l-62 125 62 312z m-62-62l-54-188h-142l-54 188h250z m-250-375l62 125h125l43-85-230-143v103z m250-344l-125-156-104 129 229 133v-106z m0 178l-250-145v135l250 156v-146z" horiz-adv-x="1000" />
<glyph glyph-name="business-tie-a" unicode="&#xe8a4;" d="m687 850h-375l63-312-63-125v-344c0 0 18-41 33-64 61-92 155-155 155-155s94 63 155 155c15 23 32 64 32 64v344l-62 125 62 312z m-62-62l-54-188h-142l-54 188h250z m0-719l-125-156-104 129 229 133v-106z m0 178l-250-145v139l206 119-30 52-176-102v103l62 125h125l63-125v-166z" horiz-adv-x="1000" />
<glyph glyph-name="business-tie-b" unicode="&#xe8a5;" d="m687 850h-375l63-312-63-125v-344c0 0 18-41 33-64 61-92 155-155 155-155s94 63 155 155c15 23 32 64 32 64v344l-62 125 62 312z m-62-62l-54-188h-142l-54 188h250z m0-719l-125-156-125 156v344l62 125h125l63-125v-344z" horiz-adv-x="1000" />
<glyph glyph-name="doc-analytic-bar" unicode="&#xe8a6;" d="m312 413c-17 0-31-14-31-32v-125c0-17 14-31 31-31 18 0 32 14 32 31v125c0 18-14 32-32 32z m188 250h0c-17-1-31-14-31-32v-375c0-17 14-31 31-31 17 0 31 14 31 31v375c0 18-14 31-31 32z m187-94c-17 0-31-14-31-31v-282c0-17 14-31 31-31s32 14 32 31v282c0 17-14 31-32 31z m250 219h-93-688-94c-17 0-31-14-31-32 0-17 14-31 31-31h32v-562c0-35 28-63 62-63h239l-78-143c-9-14-4-32 13-41 16-8 38-3 47 11l87 160c3 4 4 9 4 13h64c0-4 1-9 4-13l87-160c9-14 31-19 47-11s22 27 13 41l-78 143h239c34 0 62 28 62 63v562h32c17 0 31 14 31 31 0 18-14 32-32 32z m-93-125v-469c0-17-14-31-32-31h-625c-17 0-31 14-31 31v500c0 0 0 0 0 0v31h31c0 0 0 0 0 0h625c1 0 1 0 1 0h31v-62z" horiz-adv-x="1000" />
<glyph glyph-name="ecommerce-basket" unicode="&#xe8a7;" d="m969 569h-32-156l75 125h81v62h-125v-9l-106-178h-19-62-250-63-18l-107 178v9h-125v-62h82l74-125h-156-31c-17 0-31-14-31-31 0-18 14-32 31-32h38l56-562h187 63 250 62 188l56 562h38c17 0 31 14 31 32 0 17-14 31-31 31z m-657-563h-125l-15 125h140v-125z m0 188h-148l-16 125h164v-125z m0 187h-171l-16 125h187v-125z m313-375h-250v125h250v-125z m0 188h-250v125h250v-125z m0 187h-250v125h250v-125z m187-375h-125v125h141l-16-125z m24 188h-149v125h165l-16-125z m23 187h-172v125h188l-16-125z" horiz-adv-x="1000" />
<glyph glyph-name="ecommerce-bill" unicode="&#xe8a8;" d="m510 288v141c39-5 74-21 102-50l34 40c-34 33-79 55-136 60v59h-42v-59c-82-6-141-53-141-120 0-79 72-101 141-120v-157c-54 6-95 32-122 61l-34-42c34-37 87-64 156-68v-58h42v58c106 7 146 68 146 127 0 85-75 109-146 128z m-42 10c-46 13-82 29-82 64 0 38 34 65 82 69v-133z m42-217v148c48-14 87-31 87-73 0-31-22-68-87-75z m359 769l-123-125-120 125-129-125-124 125-129-125-116 125h-66v-1000h875v1000h-68z m6-937h-750v848l73-78 43-47 46 44 85 82 81-81 43-44 45 43 83 82 77-80 45-47 45 46 84 86v-854z" horiz-adv-x="1000" />
<glyph glyph-name="ecommerce-bill-a" unicode="&#xe8a9;" d="m62 850v-1000h66l116 125 129-125 124 125 129-125 120 125 123-125h69v1000h-876z m813-917l-84 86-45 46-45-47-77-79-83 81-45 43-43-44-81-81-85 82-46 45-43-47-73-79v849h750v-855z m-125 480h-500v-63h500v63z m0 250h-500v-63h500v63z m0-375h-500v-63h500v63z" horiz-adv-x="1000" />
<glyph glyph-name="ecommerce-bill-b" unicode="&#xe8aa;" d="m625 413h125v62h-125v-62z m0-125h125v62h-125v-62z m0-125h125v62h-125v-62z m125 500h-500v-63h500v63z m-250-188h-250v-62h250v62z m0-250h-250v-62h250v62z m-438 625v-1000h63l125 94 124-94 126 94 125-94 125 94 125-94h62v1000h-875z m813-937l-125 93-125-93-125 93-125-93-125 93-125-93v875h750v-875z m-375 437h-250v-62h250v62z" horiz-adv-x="1000" />
<glyph glyph-name="ecommerce-bowtie" unicode="&#xe8ab;" d="m906 631l-236-141c-11 10-27 16-45 16h-250c-18 0-34-6-45-16l-236 141c-52 0-94-42-94-93v-375c0-52 42-94 94-94l236 141c11-10 27-16 45-16h250c18 0 34 6 45 16l236-141c52 0 94 42 94 94v375c0 51-42 93-94 93z m-594-250h-93c-18 0-32-14-32-31 0-17 14-31 32-31h93v-63l-250-125v438l250-146v-42z m313-101c0-13-14-24-31-24h-188c-17 0-31 11-31 24v140c0 13 14 24 31 24h188c17 0 31-11 31-24v-140z m312-149l-250 125v63h94c17 0 31 14 31 31 0 17-14 31-31 31h-94v42l250 146v-438z" horiz-adv-x="1000" />
<glyph glyph-name="ecommerce-cash" unicode="&#xe8ac;" d="m368 510c0 21 18 35 42 35 35 0 61-25 61-25l22 43c0 0-23 26-69 30v38h-33v-39c-44-7-74-40-74-82 0-89 132-84 132-133 0-24-19-36-40-36-39 0-69 31-69 31l-28-40c0 0 28-32 79-38v-38h33v38c48 6 76 42 76 84 0 92-132 84-132 132z m444-316v500c0 34-27 62-62 62h-688c-34 0-62-28-62-62v-500c0-35 28-63 62-63h688c35 0 62 28 62 63z m-93 0h-625c-18 0-32 14-32 31v438c0 17 14 31 32 31h625c17 0 31-14 31-31v-438c0-17-14-31-31-31z m218 375h-93c17 0 31-14 31-31v-32h31c17 0 31-14 31-31v-437c0-18-14-32-31-32h-625c-17 0-31 14-31 32v31h-63v-63c0-34 28-62 63-62h687c35 0 63 28 63 62v500c0 35-28 63-63 63z" horiz-adv-x="1000" />
<glyph glyph-name="ecommerce-cash-a" unicode="&#xe8ad;" d="m406 600c-86 0-156-70-156-156 0-86 70-156 156-156 86 0 156 70 156 156 0 86-70 156-156 156z m0-250c-52 0-94 42-94 94 0 52 42 94 94 94 52 0 94-42 94-94 0-52-42-94-94-94z m406-125v438c0 34-27 62-62 62h-688c-34 0-62-28-62-62v-438c0-35 28-62 62-62h688c35 0 62 28 62 62z m-93 0h-625c-18 0-32 14-32 31v375c0 18 14 32 32 32h625c17 0 31-14 31-32v-375c0-17-14-31-31-31z m218 313h-62v-63h31c17 0 31-14 31-31v-375c0-18-14-31-31-31h-625c-17 0-31 13-31 31v31h-63v-62c0-35 28-63 63-63h687c35 0 63 28 63 63v437c0 35-28 63-63 63z" horiz-adv-x="1000" />
<glyph glyph-name="ecommerce-coins" unicode="&#xe8ae;" d="m875 631c0 104-168 188-375 188-207 0-375-84-375-188 0-10 3-21 6-31h-6v-156c0 0 0 0 0 0v-188 0-187 0-31h6c30-89 183-157 369-157s339 68 369 157h6v562h-6c3 10 6 21 6 31z m-63-562c0-69-139-125-312-125-173 0-312 56-313 125v84c68-51 182-84 313-84s245 33 312 84v-84z m0 187c0-69-139-125-312-125-173 0-312 56-313 125v84c68-50 182-84 313-84s245 34 312 84v-84z m0 188c0-69-139-125-312-125-173 0-312 56-313 125v84c68-51 182-84 313-84s245 33 312 84v-84z m-312 62c-173 0-313 56-313 125 0 69 140 125 313 125s312-56 312-125c0-69-139-125-312-125z" horiz-adv-x="1000" />
<glyph glyph-name="ecommerce-coins-a" unicode="&#xe8af;" d="m858 475c10 20 17 41 17 63 0 120-168 218-375 218-207 0-375-98-375-218 0-22 7-43 17-63-10-20-17-41-17-62 0-22 7-43 17-63-10-20-17-41-17-62s7-43 17-63c-10-20-17-41-17-62 0-121 168-219 375-219 207 0 375 98 375 219 0 21-7 42-17 62 10 20 17 41 17 63s-7 42-17 62c10 20 17 41 17 63 0 21-7 42-17 62z m-358-469c-173 0-313 70-313 157 0 1 1 2 1 3 67-58 182-97 312-97 130 0 244 39 312 97 0-1 0-2 0-3 0-87-139-157-312-157z m0 125c-173 0-313 70-313 157 0 1 1 2 1 3 67-58 182-97 312-97 130 0 244 39 312 97 0-1 0-2 0-3 0-87-139-157-312-157z m0 125c-173 0-313 70-313 157 0 1 1 2 1 3 67-58 182-97 312-97 130 0 244 39 312 97 0-1 0-2 0-3 0-87-139-157-312-157z m0 125c-173 0-313 70-313 157 0 86 140 156 313 156s312-70 312-156c0-87-139-157-312-157z" horiz-adv-x="1000" />
<glyph glyph-name="ecommerce-creditcard" unicode="&#xe8b0;" d="m500 569c-104 0-188-84-188-188 0-103 84-187 188-187 103 0 187 84 187 187 0 104-84 188-187 188z m0-313c-69 0-125 56-125 125s56 125 125 125c69 0 125-56 125-125s-56-125-125-125z m375 500h-750c-69 0-125-56-125-125v-562c0-69 56-125 125-125h750c69 0 125 56 125 125v562c0 69-56 125-125 125z m62-687c0-35-27-63-62-63h-172l234 235v-172z m0 265l-328-328h-484c-35 0-63 28-63 63v562c0 35 28 63 63 63h750c35 0 62-28 62-63v-297z" horiz-adv-x="1000" />
<glyph glyph-name="ecommerce-creditcard-b" unicode="&#xe8b1;" d="m375 163h-250v-63h250v63z m500 625h-750c-69 0-125-56-125-125v-63-62h1000v62 63c0 69-56 125-125 125z m62-188h-875v63c0 34 28 62 63 62h750c35 0 62-28 62-62v-63z m-937-250v-312c0-69 56-125 125-125h750c69 0 125 56 125 125v312 63h-1000v-63z m62 0h875v-312c0-35-27-63-62-63h-750c-35 0-63 28-63 63v312z" horiz-adv-x="1000" />
<glyph glyph-name="ecommerce-creditcard-c" unicode="&#xe8b2;" d="m625 163h-188v-63h188v63z m250 625h-750c-69 0-125-56-125-125v-63-250-312c0-69 56-125 125-125h750c69 0 125 56 125 125v312 250 63c0 69-56 125-125 125z m62-750c0-35-27-63-62-63h-750c-35 0-63 28-63 63v312h875v-312z m0 375h-875v125h875v-125z m0 187h-875v63c0 34 28 62 63 62h750c35 0 62-28 62-62v-63z m-562-437h-250v-63h250v63z" horiz-adv-x="1000" />
<glyph glyph-name="ecommerce-creditcard-d" unicode="&#xe8b3;" d="m375 163h-250v-63h250v63z m250 0h-188v-63h188v63z m250 625h-750c-69 0-125-56-125-125v-63-62h1000v62 63c0 69-56 125-125 125z m62-188h-875v63c0 34 28 62 63 62h750c35 0 62-28 62-62v-63z m-937-250v-312c0-69 56-125 125-125h750c69 0 125 56 125 125v312 63h-1000v-63z m62 0h875v-312c0-35-27-63-62-63h-750c-35 0-63 28-63 63v312z" horiz-adv-x="1000" />
<glyph glyph-name="ecommerce-diamon" unicode="&#xe8b4;" d="m994 530l-136 261c-8 16-29 28-46 28h-314c-1 0-1 0-1 0 0 0 0 0 0 0h-309c-17 0-38-12-46-27l-136-257c-8-15-6-39 4-53l468-591c5-7 11-10 18-10s13 3 18 10l37 45 6 2-2 4 435 535c10 14 12 38 4 53z m-177 203l86-164h-151l65 164z m-57 24l-70-175-130 175h200z m-263-1l140-187h-280l140 187z m-62 1l-134-180-72 180h206z m-257-30l63-158h-146l83 158z m-108-220h178l0-1h17l192-484-387 485z m426-416l-167 416h331l-164-416z m37-73l194 488h20l0 1h187l-401-489z" horiz-adv-x="1000" />
<glyph glyph-name="ecommerce-digital-download" unicode="&#xe8b5;" d="m475 110c1-1 3-1 5-2 5-5 12-8 20-8 9 0 17 4 23 10 0 0 0 0 0 0l186 185c12 13 12 33 0 46-13 13-34 13-47 0l-131-130v483c0 17-14 31-31 31-17 0-31-14-31-31v-485l-133 132c-13 13-34 13-47 0-12-13-12-33 0-46l186-185z m275-72h-500c-17 0-31-14-31-32s14-31 31-31h500c17 0 31 14 31 31s-14 32-31 32z m31 812h-562c-104 0-188-84-188-187v-625c0-104 84-188 188-188h562c104 0 188 84 188 188v625c0 103-84 187-188 187z m125-812c0-69-56-125-125-125h-562c-69 0-125 56-125 125v625c0 69 56 125 125 125h562c69 0 125-56 125-125v-625z" horiz-adv-x="1000" />
<glyph glyph-name="ecommerce-digital-upload" unicode="&#xe8b6;" d="m523 592c-2 2-4 1-7 3-2 2-6 3-9 4-1 0-1 0-2 0-11 2-22 1-30-7l-186-185c-12-12-12-33 0-46 13-13 34-13 47 0l133 133v-488c0-17 14-31 31-31 17 0 31 14 31 31v486l131-131c13-13 34-13 47 0 12 13 12 34 0 46l-186 185z m258 258h-562c-104 0-188-84-188-187v-625c0-104 84-188 188-188h562c104 0 188 84 188 188v625c0 103-84 187-188 187z m125-812c0-70-56-125-125-125h-562c-69 0-125 55-125 125v625c0 69 56 125 125 125h562c69 0 125-56 125-125v-625z m-156 687h-500c-17 0-31-14-31-31 0-17 14-31 31-31h500c17 0 31 14 31 31 0 17-14 31-31 31z" horiz-adv-x="1000" />
<glyph glyph-name="ecommerce-dollar" unicode="&#xe8b7;" d="m510 382v141c39-5 74-21 102-50l34 40c-34 33-79 55-136 59v60h-42v-59c-82-6-141-53-141-120 0-80 72-102 141-120v-158c-54 6-95 32-122 61l-34-41c34-37 87-64 156-68v-58h42v58c106 7 146 68 146 126 0 85-75 110-146 129z m-42 10c-46 13-82 29-82 64 0 38 34 65 82 68v-132z m42-217v148c48-14 87-31 87-74 0-31-22-68-87-74z m-10 675c-276 0-500-224-500-500 0-276 224-500 500-500 276 0 500 224 500 500 0 276-224 500-500 500z m0-937c-242 0-438 196-438 437 0 242 196 438 438 438 242 0 437-196 437-438 0-241-195-437-437-437z" horiz-adv-x="1000" />
<glyph glyph-name="ecommerce-euro" unicode="&#xe8b8;" d="m678 475h75c-39 74-116 125-206 125s-167-51-206-125h-60c-17 0-31-14-31-31 0-17 14-31 31-31h36c-3-16-5-31-5-47 0-6 2-11 2-16h-33c-17 0-31-14-31-31s14-31 31-31h46c32-91 118-157 220-157 76 0 144 38 186 94h-88c-28-19-61-31-98-31-67 0-124 38-152 94h167c18 0 32 14 32 31s-14 31-32 31h-185c-1 5-2 10-2 16 0 16 3 32 7 47h180c18 0 32 14 32 31 0 17-14 31-32 31h-147c32 38 79 63 132 63s100-25 131-63z m-178 375c-276 0-500-224-500-500 0-276 224-500 500-500 276 0 500 224 500 500 0 276-224 500-500 500z m0-937c-242 0-438 196-438 437 0 242 196 438 438 438s437-196 437-438c0-241-195-437-437-437z" horiz-adv-x="1000" />
<glyph glyph-name="ecommerce-gift" unicode="&#xe8b9;" d="m701 663c11 18 18 39 18 62 0 69-56 125-125 125-38 0-71-17-94-43-23 26-56 43-94 43-69 0-125-56-125-125 0-23 7-44 18-62h-268v-188h63v-250-62-313h375 62 375v313 62 250h63v188h-268z m-107 125c34 0 62-28 62-63 0-35-28-63-62-63s-63 28-63 63c0 35 28 63 63 63z m-188 0c35 0 63-28 63-63 0-35-28-63-63-63s-62 28-62 63c0 35 28 63 62 63z m63-875h-313v250h313v-250z m0 312h-313v250h313v-250z m375-312h-313v250h313v-250z m0 312h-313v250h313v-250z m62 313h-812v62h812v-62z" horiz-adv-x="1000" />
<glyph glyph-name="ecommerce-hanger" unicode="&#xe8ba;" d="m512 522c67 29 113 95 113 172 0 103-84 187-187 187-104 0-188-84-188-187 0-11 1-21 3-31h64c-3 10-4 20-4 31 0 69 55 125 125 125 69 0 125-56 125-125 0-69-56-125-125-125v-63l406-437c-1 0 74-63-63-63h-687c-138 0-62 61-63 63l305 281h-97l-302-281c0-35 28-125 63-125h875c35 0 63 90 63 125l-426 453z" horiz-adv-x="1000" />
<glyph glyph-name="ecommerce-jeans" unicode="&#xe8bb;" d="m937-46l-227 873c-3 11-12 18-23 21v2h-62c0 0 0 0 0 0h-250c0 0 0 0 0 0h-63v-2c-10-3-19-10-22-21l-227-873c-5-17 5-34 22-38l243-65c16-4 33 6 38 22l134 515 134-515c4-16 22-26 38-22l243 65c16 4 26 21 22 38z m-99 6l-121-33c-17-4-34 6-39 22l-176 682h-4l-176-682c-5-16-22-26-39-22l-121 33c-17 4-27 21-22 38l172 664h94v63h-78l16 62h312l16-62h-78v-63h94l172-664c5-17-5-34-22-38z" horiz-adv-x="1000" />
</font>
</defs>
</svg>
